<?xml version="1.0" standalone="no"?>
<!DOCTYPE svg PUBLIC "-//W3C//DTD SVG 1.1//EN" "http://www.w3.org/Graphics/SVG/1.1/DTD/svg11.dtd">
<svg xmlns="http://www.w3.org/2000/svg">
<metadata>Copyright (C) 2025 by original authors @ fontello.com</metadata>
<defs>
<font id="ccg-icons" horiz-adv-x="1000" >
<font-face font-family="ccg-icons" font-weight="400" font-stretch="normal" units-per-em="1000" ascent="850" descent="-150" />
<missing-glyph horiz-adv-x="1000" />
<glyph glyph-name="home" unicode="&#xe800;" d="M812 333l-287 236c-6 5-15 8-25 8-10 0-19-3-25-8l-286-236c-16-13-30-42-30-62v-270c0-17 14-30 30-30h65c16 0 30 13 30 30v188c0 9 7 16 16 16h141c9 0 16-7 16-16v-188c0-17 13-30 30-30h324c16 0 30 13 30 30v270c0 20-14 49-29 62z m145-19c-6-7-14-10-23-10-6 0-13 2-19 7l-415 350-415-350c-6-5-12-7-19-7-9 0-17 3-23 10-11 13-9 32 3 43l435 366c1 0 2 1 3 1 1 1 3 2 5 3 2 1 4 1 5 2 2 0 4 0 6 0 2 0 4 0 6 0 2-1 3-1 5-2 2-1 4-2 5-3 1 0 2-1 3-1l189-159v76c0 13 11 24 24 24h82c13 0 24-11 24-24v-186l116-97c12-11 14-30 3-43z" horiz-adv-x="1000" />

<glyph glyph-name="account" unicode="&#xe801;" d="M629 268c26 36 45 75 60 115 8 1 16 8 18 14 10 41 12 76 13 102 0 6-10 15-14 16 1 137-24 258-206 258-182 0-207-121-206-258-4-1-14-10-14-16 1-26 3-61 13-102 2-6 10-13 18-14 15-40 34-79 60-115 26-36 51-62 82-74 22-8 72-8 94 0 31 12 56 38 82 74l0 0z m325-341h-908c53 119 149 211 314 275 22-26 47-48 78-60 32-11 92-11 124 0 31 12 56 34 78 60 165-64 261-156 314-275l0 0z" horiz-adv-x="1000" />

<glyph glyph-name="manage-account" unicode="&#xe802;" d="M433 505c-21 3-41 5-62 4l-27 49c-5 9-15 14-26 10l-39-12-39-12c-10-3-15-13-13-23l9-55c-17-11-32-23-46-38l-57 16c-9 4-21 0-25-9l-19-35-18-34c-5-9-1-20 7-25l48-33c-4-19-5-39-4-58l-52-26c-10-4-15-14-11-24l13-36 13-37c3-10 14-15 24-13l58 9c12-16 25-31 41-44l-18-53c-3-9 1-20 10-24l37-17 37-18c10-4 21-1 27 7l34 45c21-3 41-5 62-4l27-49c5-9 16-13 26-10l39 12 39 12c10 4 16 13 13 23l-9 55c17 11 32 24 46 38l57-16c10-4 21 0 25 9l19 35 18 35c5 9 2 19-7 25l-48 32c4 19 5 39 4 58l52 26c10 4 15 14 11 24l-13 37-13 36c-3 10-14 15-24 13l-58-9c-12 16-25 31-40 44l17 53c3 9-1 20-10 24l-37 18-37 17c-10 4-21 1-27-7l-34-45 0 0z m24-106c80-38 113-129 73-205-40-76-138-107-218-69-81 38-114 130-74 205 41 76 138 107 219 69z m262 306c-11-3-22-7-32-12l-27 18c-4 3-11 3-15-1l-17-15-16-16c-4-4-4-10-1-14l20-26c-6-9-10-19-13-29l-33-5c-6-1-10-6-10-11v-22-22c0-5 4-10 10-10l33-5c3-11 7-21 13-30l-20-25c-3-5-3-11 1-15l16-15 17-16c4-4 11-4 15 0l27 18c10-5 21-10 32-13l5-30c1-6 6-10 12-10h23 23c5 0 10 4 11 10l5 30c12 3 22 8 32 13l27-18c4-4 11-4 15 0l17 16 16 15c4 4 4 10 1 15l-20 25c6 9 10 19 14 30l32 5c6 0 10 5 10 10v22 22c0 5-4 10-10 11l-32 5c-4 10-8 20-14 29l20 26c3 4 3 10-1 14l-16 16-17 15c-4 4-11 4-15 1l-27-18c-10 5-20 9-32 12l-5 31c-1 5-6 9-11 9h-23-23c-6 0-11-4-12-9l-5-31 0 0z m40-41c53 0 97-41 97-92 0-50-44-92-97-92-54 0-98 42-98 92 0 51 44 92 98 92z" horiz-adv-x="1000" />

<glyph glyph-name="add" unicode="&#xe803;" d="M500 813c-256 0-463-207-463-463 0-256 207-463 463-463 256 0 463 207 463 463 0 256-207 463-463 463l0 0z m0-174c32 0 58-26 58-58v-173h174c31 0 57-26 57-58 0-32-26-58-57-58h-174v-173c0-32-26-58-58-58-32 0-58 26-58 58v173h-174c-31 0-57 26-57 58 0 32 26 58 57 58h174v173c0 32 26 58 58 58z" horiz-adv-x="1000" />

<glyph glyph-name="close" unicode="&#xe804;" d="M566 348l242 241c13 12 13 33 0 46l-23 23c-13 13-34 13-47 0l-242-240-232 229c-12 13-33 13-46 0l-23-23c-12-12-12-33 0-45l232-230-235-233c-12-12-12-33 0-46l24-23c12-12 33-12 46 0l235 233 239-238c13-12 34-12 46 0l23 23c13 13 13 33 0 46l-239 237z" horiz-adv-x="1000" />

<glyph glyph-name="collapse" unicode="&#xe805;" d="M853 745c23 0 42-19 42-42v-706c0-23-19-42-42-42h-706c-23 0-42 19-42 42v706c0 23 19 42 42 42h706m0 46h-706c-49 0-88-39-88-88v-706c0-49 39-88 88-88h706c49 0 88 39 88 88v706c0 49-39 88-88 88l0 0z m-640-485h574v66h-574v-66z" horiz-adv-x="1000" />

<glyph glyph-name="expand" unicode="&#xe806;" d="M853 745c23 0 42-19 42-42v-706c0-23-19-42-42-42h-706c-23 0-42 19-42 42v706c0 23 19 42 42 42h706m0 46h-706c-49 0-88-39-88-88v-706c0-49 39-88 88-88h706c49 0 88 39 88 88v706c0 49-39 88-88 88l0 0z m-331-154h-66v-265h-243v-66h243v-243h66v243h265v66h-265v265z" horiz-adv-x="1000" />

<glyph glyph-name="gallery-view" unicode="&#xe807;" d="M406 777h-291c-23 0-42-19-42-42v-291c0-23 19-42 42-42h291c23 0 42 19 42 42v291c0 23-19 42-42 42z m479-479h-291c-23 0-42-19-42-41v-292c0-23 19-42 42-42h291c23 0 42 19 42 42v292c0 22-19 41-42 41z m-479 0h-291c-23 0-42-19-42-41v-292c0-23 19-42 42-42h291c23 0 42 19 42 42v292c0 22-19 41-42 41z m479 479h-291c-23 0-42-19-42-42v-291c0-23 19-42 42-42h291c23 0 42 19 42 42v291c0 23-19 42-42 42z" horiz-adv-x="1000" />

<glyph glyph-name="list-view" unicode="&#xe808;" d="M88 301h107c8 0 15-7 15-16v-109c0-8-7-15-15-15h-107c-9 0-16 7-16 15v109c0 9 7 16 16 16l0 0z m0-239h107c8 0 15-7 15-15v-109c0-9-7-16-15-16h-107c-9 0-16 7-16 16v109c0 8 7 15 16 15l0 0z m0 477h107c8 0 15-7 15-15v-109c0-9-7-16-15-16h-107c-9 0-16 7-16 16v109c0 8 7 15 16 15l0 0z m0 239h107c8 0 15-7 15-16v-109c0-8-7-15-15-15h-107c-9 0-16 7-16 15v109c0 9 7 16 16 16l0 0z m235-725h547c32 0 58-27 58-61 0-33-26-60-58-60h-547c-32 0-58 27-58 60 0 34 26 61 58 61l0 0z m0 238h547c32 0 58-27 58-60 0-33-26-61-58-61h-547c-32 0-58 28-58 61 0 33 26 60 58 60l0 0z m0 239h547c32 0 58-28 58-61 0-33-26-60-58-60h-547c-32 0-58 27-58 60s26 61 58 61l0 0z m0 238h547c32 0 58-27 58-60 0-33-26-61-58-61h-547c-32 0-58 27-58 61 0 33 26 60 58 60z" horiz-adv-x="1000" />

<glyph glyph-name="history-view" unicode="&#xe809;" d="M71 736c0 22 18 40 41 40 22 0 40-18 40-40v-732h737c22 0 40-18 40-40 0-22-18-40-40-40h-777c-23 0-41 18-41 40v772l0 0z m777-679c15 0 27 12 27 27v586c0 5-2 11-5 15-4 6-13 11-22 11-8 0-14-3-19-7l-383-381-61 61c-10 10-27 10-38 0l-134-133c-5-5-8-12-8-19v-133c0-15 12-27 27-27h616z" horiz-adv-x="1000" />

<glyph glyph-name="goto" unicode="&#xe80a;" d="M797 618c0 18-15 32-33 32l-531 0c-18 0-33-14-33-32l0-33c0-17 15-32 33-32l401-1-407-398c-13-13-13-34 0-46l24-23c13-13 34-13 47 0l402 394 0-396c0-18 15-33 32-33l33 0c18 0 32 14 32 32l0 536z" horiz-adv-x="1000" />

<glyph glyph-name="help" unicode="&#xe80b;" d="M500-92c-244 0-442 198-442 442 0 244 198 442 442 442 244 0 442-198 442-442 0-244-198-442-442-442z m0 842c-221 0-400-179-400-400 0-221 179-400 400-400 221 0 400 179 400 400 0 221-179 400-400 400z m-41-563c-1 11-1 18-1 23 0 30 4 56 13 78 6 16 16 33 30 49 10 12 28 30 55 53 26 23 43 42 51 56 8 14 12 29 12 45 0 30-12 56-35 78-23 23-51 34-85 34-32 0-59-10-81-31-22-20-36-52-43-95l-78 9c7 58 28 102 63 133 35 31 81 46 138 46 61 0 109-16 145-49 36-33 54-73 54-120 0-27-6-52-19-75-13-23-37-50-74-83-25-22-41-38-49-49-8-10-13-22-17-36-3-13-6-35-6-66h-73z m-5-152v86h87v-86h-87z" horiz-adv-x="1000" />

<glyph glyph-name="images" unicode="&#xe80c;" d="M110 581h55v29c0 16 13 29 28 29h84c15 0 28-13 28-29v-29h122l54 88c10 18 28 27 47 28l195 0c21 0 40-13 49-31l52-85h66c31 0 56-26 56-58v-462c0-32-25-58-56-58h-780c-31 0-56 26-56 58v462c0 32 25 58 56 58l0 0z m516-144c-70 0-126-59-126-130 0-72 56-130 126-130 69 0 125 58 125 130 0 71-56 130-125 130l0 0z m-461 57c-15 0-28-13-28-28l0 0c0-16 13-29 28-29h140c15 0 28 13 28 29l0 0c0 15-13 28-28 28h-140l0 0z m461 29c-116 0-210-97-210-216 0-120 94-217 210-217s209 97 209 217c0 119-94 216-209 216z" horiz-adv-x="1000" />

<glyph glyph-name="menu" unicode="&#xe80d;" d="M135 714h730c40 0 73-32 73-70 0-39-33-71-73-71h-730c-40 0-73 32-73 71 0 38 33 70 73 70l0 0z m0-587h730c40 0 73-32 73-70 0-39-33-71-73-71h-730c-40 0-73 32-73 71 0 38 33 70 73 70l0 0z m0 294h730c40 0 73-32 73-71 0-39-33-71-73-71h-730c-40 0-73 32-73 71 0 39 33 71 73 71z" horiz-adv-x="1000" />

<glyph glyph-name="scales" unicode="&#xe80e;" d="M974 143c-1 1-2 1-3 2l-217 557c0 0 0 0 0 0v0c0 0 0 0 0 1-1 0-1 0-1 0h0 0c0 0-1 0-1 0v0c0 0 0 0 0 0h0 0c-2 1-52 8-173 10-11 18-37 48-77 48-41 0-67-30-79-48-127-2-184-10-185-10v0c0 0 0 0-1 0h0 0c0 0 0 0 0 0-1-1-1-1-1-1 0 0 0 0 0 0l0 0-209-558c0-1 0-2 0-2 0 0 0-1 0-2 0 0-1 0-1 0-1-2-1-3-1-5 1-2 50-150 224-150 164 0 212 148 212 149 1 2 1 4 0 5-1 1-2 1-2 1 0 0 0 1 0 1l-217 557c33-2 257-16 257-121 0-4-3-378-27-565-46-58-136-67-137-67-2 0-3-2-3-3 0-1 1-3 3-3h337c2 0 3 1 3 3 0 1-1 3-2 3-1 0-91 12-139 68-27 187-30 560-30 564 0 105 213 119 244 121l-208-554c0 0 0 0 0 0-2-2-2-4-1-5 0-2 50-150 223-150 164 0 212 148 213 149 0 2 0 4-1 5z m-550-2l-361 1 176 550 185-551z m78 520c-20 0-36 16-36 35 0 20 16 36 36 36 19 0 35-16 35-36 0-19-16-35-35-35z m250 31l184-547-358 1 174 546z" horiz-adv-x="1000" />

<glyph glyph-name="search" unicode="&#xe80f;" d="M859 56l-209 208c34 47 54 104 54 165 0 156-127 283-283 283-156 0-283-127-283-283s127-282 283-282c61 0 118 20 165 53l208-209c7-6 22-2 34 10l21 22c12 11 16 26 10 33z m-438 168c-114 0-206 92-206 205s92 206 206 206 205-92 205-206-92-205-205-205z" horiz-adv-x="1000" />

<glyph glyph-name="selected" unicode="&#xe810;" d="M926 638l-23 21c-13 11-33 10-45-3l-413-504-309 252c-13 11-32 10-44-2l-21-23c-11-13-10-33 3-44l360-294c13-11 33-10 44 3l451 550c11 13 10 33-3 44z" horiz-adv-x="1000" />

<glyph glyph-name="up" unicode="&#xe811;" d="M495 456l334-323c13-13 33-13 46-1l23 22c12 12 12 32-1 45l-369 357-11 12c-13 12-33 12-46 0l-368-365c-13-13-13-33 0-45l22-23c13-12 33-12 46 0l324 321z" horiz-adv-x="1000" />

<glyph glyph-name="down" unicode="&#xe812;" d="M505 244l-334 324c-13 12-33 12-46 0l-23-22c-12-12-12-32 1-45l369-357 12-12c12-12 33-12 45 0l369 365c12 13 12 33 0 45l-23 23c-13 12-33 12-46 0l-324-321z" horiz-adv-x="1000" />

<glyph glyph-name="prev" unicode="&#xe813;" d="M394 345l324 334c12 13 12 34 0 46l-22 23c-12 12-32 12-45-1l-357-369-12-11c-12-13-12-33 0-46l366-369c12-12 32-12 45 0l22 23c13 13 13 33 0 46l-321 324z" horiz-adv-x="1000" />

<glyph glyph-name="next" unicode="&#xe814;" d="M607 355l-327-337c-13-13-13-33-1-46l23-23c12-13 32-12 45 1l362 371 12 12c12 13 12 34 0 46l-370 372c-13 12-33 12-46 0l-23-23c-12-13-12-34 0-46l325-327z" horiz-adv-x="1000" />

<glyph glyph-name="views" unicode="&#xe815;" d="M500 498c-82 0-148-66-148-148 0-82 66-148 148-148 82 0 148 66 148 148 0 82-66 148-148 148z m0-222c-41 0-74 33-74 74 0 41 33 74 74 74 41 0 74-33 74-74 0-41-33-74-74-74z m393 83c-60 156-220 262-393 262-173 0-333-106-393-262-1-3-2-6-2-9 0-3 1-6 2-9 60-156 220-262 393-262 173 0 333 106 393 262 1 3 2 6 2 9 0 3-1 6-2 9z m-393-206c-109 0-197 88-197 197 0 109 88 197 197 197 109 0 197-88 197-197 0-109-88-197-197-197z" horiz-adv-x="1000" />

<glyph glyph-name="play" unicode="&#xe816;" d="M775 378l-476 374c-5 4-11 7-17 9-2 0-4 0-7 0l-29 0c-17 0-30-13-30-29l0-763c0-17 13-30 29-30l30 0c0 0 1 0 1 0 0 0 0 0 1 0 0 0 1 0 2 0 0 0 0 0 0 0 1 0 2 0 3 1 0 0 1 0 1 0 1 0 1 0 1 0 6 2 11 5 15 9l464 371 12 12c13 13 13 34 0 46z m-470-303l0 550 357-271-357-279z" horiz-adv-x="1000" />

<glyph glyph-name="pause" unicode="&#xe817;" d="M290-30l0 761c0 16 14 29 30 29l30 0c17 0 30-14 30-30l0-761c0-16-13-29-30-29l-30 0c-16 0-30 14-30 30z m330 0l0 761c0 16 13 29 30 29l30 0c16 0 30-14 30-30l0-761c0-16-14-29-30-29l-30 0c-17 0-30 14-30 30z" horiz-adv-x="1000" />

<glyph glyph-name="full-screen" unicode="&#xe818;" d="M883 715c0 11-9 19-20 19l-317 0c-11 0-20-8-20-19l0-20c0-10 9-19 20-19l240-1-244-238c-8-8-8-20 0-28l14-13c8-8 20-8 28 0l241 235 0-237c0-10 9-19 19-19l20 0c11 0 19 8 19 19l0 321z m-766-730c0-11 9-19 20-19l318 0c10 0 19 8 19 19l0 20c0 10-9 19-19 19l-240 1 243 238c8 8 8 20 0 28l-14 14c-8 7-20 7-28 0l-241-236 0 237c0 10-9 19-19 19l-20 0c-10 0-19-8-19-19l0-321z" horiz-adv-x="1000" />

<glyph glyph-name="warning" unicode="&#xe819;" d="M565 737c-36 71-94 71-129 0l-349-698c-36-71 0-129 79-129h668c79 0 115 58 79 129l-348 698z m-65-692c-25 0-46 20-46 45 0 26 21 46 46 46 25 0 46-20 46-46 0-25-21-45-46-45z m0 137c-25 0-25 0-25 0-11 25-21 107-21 183s10 158 21 183c0 0 0 0 25 0 25 0 25 0 25 0 12-25 21-108 21-183s-10-158-21-183c0 0 0 0-25 0z" horiz-adv-x="1000" />

<glyph glyph-name="error" unicode="&#xe81a;" d="M539 744c18-39 33-168 33-286s-15-248-33-287c0 0 0 0-39 0-39 0-39 0-39 0-18 39-33 168-33 287s15 247 33 286c0 0 0 0 39 0 39 0 39 0 39 0z m-39-645c-39 0-72-32-72-71 0-40 33-72 72-72 40 0 72 32 72 72 0 39-32 71-72 71z" horiz-adv-x="1000" />

<glyph glyph-name="success" unicode="&#xe81b;" d="M500 794c-245 0-444-199-444-444 0-245 199-444 444-444s444 199 444 444c0 245-199 444-444 444z m249-266l-264-417c-10-14-30-17-45-8l-197 166c-9 5-16 14-17 24-2 8 0 17 6 24l12 17c10 14 30 17 45 8l157-138 237 369c10 16 32 20 47 9l12-8c7-6 11-14 13-22 1-8-1-17-6-24z" horiz-adv-x="1000" />

<glyph glyph-name="edit" unicode="&#xe81c;" d="M214 212v-1l-5-5c-1 0-1-2-2-3l-66-170c0-1-1-1-1-1l-19-48c-1-4 0-8 3-10 2-3 6-4 10-2l47 18c0 0 1 1 1 1l170 67c1 1 2 1 3 2l5 5h1l425 426-146 145-426-424z m-16-195c5 13 5 24-1 30-6 7-18 7-31 2 20 51 47 122 54 140 13 0 40 0 51 0l0 0-1-1-5-72 72 5 1 1c0-10 0-37 0-50-23-9-90-35-140-55z m661 546l-44-43-145 145 44 45c26 26 68 25 94 0l53-54c26-25 24-67-2-93z" horiz-adv-x="1000" />

<glyph glyph-name="trash" unicode="&#xe81d;" d="M749 540c-20 2-38-13-39-34l-40-477h-340l-40 477c-1 21-19 36-39 34-20-2-35-20-34-40l43-510c2-19 17-34 36-34h408c19 0 35 15 36 34l43 510c1 20-14 38-34 40z m39 106h-169c-11 56-60 98-119 98-59 0-108-42-118-98h-170c-20 0-36-16-36-37 0-20 16-36 36-36h576c20 0 37 16 37 36 0 21-17 37-37 37z m-365 0c3 13 11 25 20 34 15 15 35 24 57 24 22 0 42-9 57-24 10-9 17-21 20-34h-154z m-28-580c0 0 0 0 0 0 11 0 20 9 19 20l-17 424c0 11-10 20-21 19-11 0-19-9-19-20l18-424c0-11 9-19 20-19z m211 0c10 0 19 8 20 19l17 424c0 11-8 20-19 20-11 1-21-8-21-19l-17-424c-1-11 8-20 19-20 0 0 0 0 1 0z m-86 14v430c0 11-9 20-20 20-11 0-20-9-20-20v-430c0-11 9-20 20-20 11 0 20 9 20 20z" horiz-adv-x="1000" />

<glyph glyph-name="description" unicode="&#xe81e;" d="M341 679h119v38c0 21 18 38 40 38 22 0 40-17 40-38v-38h119v38c0 21 18 38 40 38 22 0 40-17 40-38v-38c44 0 80-34 80-76v-582c0-42-36-76-80-76h-478c-44 0-80 34-80 76v582c0 42 36 76 80 76v38c0 21 18 38 40 38 22 0 40-17 40-38v-38l0 0z m-69-476c-15 0-28-12-28-27 0-15 12-27 28-27h456c16 0 28 12 28 27 0 15-12 27-28 27h-456l0 0z m0 136c-15 0-28-12-28-27 0-15 12-27 28-27h456c16 0 28 12 28 27s-12 27-28 27h-456l0 0z m0 136c-15 0-28-12-28-27 0-15 12-27 28-27h456c16 0 28 12 28 27 0 15-12 27-28 27h-456z" horiz-adv-x="1000" />

<glyph glyph-name="no-description" unicode="&#xe81f;" d="M739-65h-478c-49 0-89 38-89 85v583c0 44 35 80 80 84v30c0 26 22 47 49 47s49-21 49-47v-29h101v29c0 26 22 47 49 47 27 0 49-21 49-47v-29h101v29c0 26 22 47 49 47 27 0 49-21 49-47v-30c45-4 80-40 80-84v-583c0-47-40-85-89-85z m-478 735c-39 0-71-30-71-67v-583c0-37 32-67 71-67h478c39 0 71 30 71 67v583c0 37-32 67-71 67h-9v47c0 16-14 29-31 29-16 0-31-13-31-29v-47h-137v47c0 16-14 29-31 29-17 0-31-13-31-29v-47h-137v47c0 16-14 29-31 29-17 0-31-13-31-29v-47h-9z m452-520h-425c-20 0-36 16-36 35 0 19 16 34 36 34h425c19 0 35-15 35-34 0-19-16-35-35-35z m-425 51c-10 0-18-7-18-16 0-9 8-17 18-17h425c9 0 17 8 17 17 0 9-8 16-17 16h-425z m425 76h-425c-20 0-36 15-36 34 0 19 16 35 36 35h425c19 0 35-16 35-35 0-19-16-34-35-34z m-425 51c-10 0-18-8-18-17 0-9 8-16 18-16h425c9 0 17 7 17 16 0 9-8 17-17 17h-425z m425 76h-425c-20 0-36 15-36 34 0 19 16 34 36 34h425c19 0 35-15 35-34 0-19-16-34-35-34z m-425 50c-10 0-18-7-18-16 0-9 8-16 18-16h425c9 0 17 7 17 16 0 9-8 16-17 16h-425z" horiz-adv-x="1000" />

<glyph glyph-name="globe" unicode="&#xe820;" d="M456 305c1-3 2-7 2-10 0-2-2-7-3-10-1-3-4-7-5-10-2-2-2-7-2-11l1-6c1-4 1-10 1-13 0-4 0-8 0-10-1-2-3-5-4-7-2-2-5-4-7-4-2 0-5-3-7-5-2-3-3-8-3-11 0-3 0-5 0-5l0-4c0-2-1-6-2-7-1-2-2-5-2-6 1-1 1-3 1-3l0-2c0-2 0-4-2-6-1-1-3-4-3-6-1-2-1-5-1-7 0-2-3-5-6-6-3-2-6-6-7-10 0-3 0-9 1-12 0-3 2-8 4-11 2-2 4-7 5-10 0-3 2-7 4-9 1-2 6-4 9-6l1 0c3-1 5-4 4-6-2-1-6-2-10-2l-1 0c-4 0-9 3-12 5l-16 15c-3 2-7 7-9 10-9 13-31 50-38 103 0 2-6 9-10 14-3 2-8 6-11 8l-2 1c-3 2-9 5-12 7-2 3-4 6-6 12-2 4-5 9-8 12-1 1-2 2-2 3-3 3-6 7-8 9-2 3-3 5-3 5s-6 7 6 36c1 3 4 13 2 22-1 4-1 8 2 9 2 1 5 5 7 8 3 6 9 12 15 6 4-4 7-5 10-5 4 0 9 2 13 2 3 1 8 0 11-3 3-2 7-5 9-7 2-2 4-4 4-6 0-1 3-1 7-1l2 0c4 1 8 0 9-1 1-2 2-3 3-3 1 0 2-1 3-2 1-2 2-4 3-5 1-2 1-3 1-3l3-5c2-3 6-6 10-8l6-2c4-1 10-2 14-3 3-1 9-3 12-4l10-5c3-2 7-6 7-9z m260-167c4 2 8 6 11 8 11 10 15 14 23 13 4 0 8-4 10-7 5-7 11-13 23 5 11 17 22 32 27 40 2 3 5 9 6 12 0 4-1 8-4 12-2 3-6 8-8 11-2 4-3 8-1 17 1 4 2 9 1 13 0 3-1 6-3 8-3 2-10 3-13 3-6 0-13 0-18-3-3-1-7-6-10-8-3-1-6-3-7-4l-2-2-6-9-8-13c-2-3-6-8-8-11-3-6-6-15-4-25 1-1-2-12-4-19-1-4-5-8-7-12-2-3-4-7-4-9-1-4-1-10-2-14 0-4 1-8 8-6z m187 212c0-222-181-403-403-403-222 0-402 181-402 403 0 222 180 403 402 403 222 0 403-181 403-403z m-559-327c59-27 125-40 194-32 198 22 341 201 318 399-2 22-5 34-11 55 0 1 0 3-1 4 0 0 0 0 0 0 0 2-1 3-1 4 1-3 1-7 1-10 0-3-4-6-7-8-3-2 1 0 2-2 3-3 4-8 3-12l-1-3c-1-4-1-10-1-13l0-3c1-4 0-8-2-9-2-2-5-1-6 1-1 1-5 4-8 5-2 2-4 1-4-1 0-1-1-3-2-3-2 0-4 2-6 5-1 3-3 7-3 9 0 2-1 6-2 10-1 2-2 5-3 9-2 4-7 4-10 7-6 5-9 3-11 0-2-3-3-10-4-13l-1-8c-1-3-3-9-4-13-1-5-2-12-1-21 0-5 0-8-1-9-2-3-8 3-10 6l-7 11-8 14-4 8c-2 3-5 8-7 11l-3 4c-2 4-7 8-10 10l-6 4c-3 2-8 6-10 9-5 7-14 18-23 27-8 8-14 6-18 4-4-2-7-5-9-5-1 0-5 0-8 1-2 1-7 3-11 3-4-1-5-2-3-4 2-3 7-6 10-9l8-6c0 0 22-16 38-26 3-3 9-5 12-7 2-1 4-2 5-3 2-4-2-9-2-11-1-2-4-6-6-9-3-3-7-6-11-11-3-2-2-6 1-8 11-9 12-15 12-20 0-4-3-9-4-13-2-4-2-6 1-9 2-3 5-8 3-11-3-5-8-3-8-3s-2 1-5 2c-3 0-7-2-9-5-7-11-8-18-8-23 0-4 2-10 2-13 0-5 0-11 0-18 0-4-2-9-5-11-3-3-5-6-5-8-2-3-1-9-2-13-1-7-5-20-13-37-9-21-25-15-33-11-3 2-7 7-8 11-1 4-3 10-5 20-1 4-3 10-4 13-6 14-7 24-7 30 0 4 1 10 2 13l1 19c1 4-1 9-3 12-3 4-5 8-5 12 0 3-1 6-1 9-1 4-3 9-6 11-5 4-14 8-29 6-3-1-9-4-12-5-15-6-20 7-20 7l-3 6c-2 3-5 7-7 9-2 1-5 5-7 8-4 9-8 15-10 19-1 3-4 8-6 12-1 2-3 6-6 10-1 3-4 9-5 13-10 39 7 57 17 64 3 2 9 4 13 5l4 1c4 1 8 2 11 2 2-1 5-2 7-4 2-2 4-4 6-5 2 0 5-1 7-2 3 0 6 0 9 1 2 1 7 1 11 2 4 1 10 2 18 5 4 1 6 6 6 9-2 10-6 9-11 8-4-1-9-3-12-2-3 1-6 4-7 6 0 1-1 4-1 5-1 1-2 3-3 3-1 0-3-1-3-3-1-2 0-5 1-8 0-2-2-4-4-1-2 2-4 4-7 8-4 8-11 10-16 12-4 0-10-1-13-3-3-1-5-3-8-5-3-2-7-7-9-10-8-13-11-11-12-7-1 4 0 10-1 14l-2 13c0 3 0 9 1 13l3 15 4 14c0 3 3 8 6 11 2 4 5 9 9 16 2 4 5 8 8 10l3 2c4 2 9 3 13 2l13-1 5-1c4 0 8 0 10 0 3 0 8 2 11 3 5 3 12 7 18 13 11 9 23 8 30 6 3-1 9-2 12-1 3 0 6 0 6 0l10 1c4 1 9 0 11-1 2-1 7-1 10 1l2 1c3 1 9 2 13 2l9-1c4-1 10-1 14 0l7 1c4 0 9-1 12-4-2 2-4 3-5 4l0 0c-2 2-3 3-5 4-70 50-157 75-248 64-79-8-148-42-202-91-1 0-1-1-2-2-6-6-13-12-18-18-3-3-6-6-8-8l-2-3c2 3 7 5 11 5 3-1 4 0 4 2 0 1 1 2 3 2 4 0 18 10 18 10s18 11 30 24c3 3 8 5 11 4l5-1c4-1 9-1 13-1 3 1 7 3 9 2 1-1 2-2 3-4 4-6 7-1 8 7 0 3 0 6 1 8 0 4 2 10 6 12 4 1 10 0 18-12 9-14 13-11 14-6 1 3 4 7 7 10 3 2 6 5 6 5l5 4c2 2 1 4 1 7 0 1 1 2 2 4 2 2 4 3 6 3 3 0 9-2 12-4 2-1 3-2 5-4 2-2 4-4 6-5 4-2 8-3 10-5 2-1 8-3 8-7 0-2-1-4-3-6-7-8-6-3-5-9 0-2 0-3 0-4-1-2-3-3-4-3-1 0-2 0-2 0l-5-1c-2 0-7-2-9-5-6-6-15-17-7-19 4 0 8-1 10-1 4 0 7-1 7-3 0-2 1-4 2-5 1-1 3-1 6-2 1 0 2 0 2-2 1-2 1-4 2-6 1-3 0-7 2-9 0-1 1-2 2-3 5-4 9-10 2-14-3-1-6-3-8-4-4-2-8-4-10-5-1-1-3-2-3-2s-16-8-13 0c1 4 0 6-3 6l-8 0c0 0-43 3-70-33-2-3-5-8-7-11-3-5-9-12-17-18-3-2-6-6-7-10 0-3 0-6 0-6l-1-11c0 0-1-10-5-6-2 3-2 9-3 13-1 4-4 7-10 5-6-1-14-3-19-3-4-1-10-2-13-4-7-4-17-15-14-38 1-5-1-14 8-12 4 0 9 4 13 4 3 1 15 3 14-4-2-12 7-29 7-33 1-4 15-5 16-5 1 1-2-15-7-11-3 3-9 8-14 12-3 2-5 8-7 10-2 2-5 4-9 4-11 2-14 8-14 11 1 3 3 1-13 2-8 1-14 3-18 5-4 2-7 5-9 8-1 2-2 7-3 11l0 6c-1 4-2 10-4 13l-5 12-3 5c-1 3-4 7-6 8-2 1-5 6-6 9l0 1c-1 3-2 9-1 13 1 5 6 14 16 29 9 12 15 19 18 23 2 3 4 7 4 10-1 3-1 7 0 10 0 2 0 3 0 4-4-5-8-10-12-16-1-2-2-4-4-6-6-8-11-18-16-27-1 0-1 0-1 0-28-52-43-111-43-173 0-136 76-255 187-317 1-1 2-1 3-2 5-3 11-5 16-8z" horiz-adv-x="1000" />

<glyph glyph-name="learn-more" unicode="&#xe821;" d="M567-48l-33-33c-3-3-8-5-12-5h-44c-4 0-10 2-13 5l-33 33c-3 3-2 5 2 5h131c4 0 5-2 2-5z m20 76h-175c-12 0-22-10-22-22 0-12 10-22 22-22h175c12 0 22 10 22 22 0 12-10 22-22 22z m0 70h-175c-12 0-22-10-22-22 0-12 10-22 22-22h175c12 0 22 10 22 22 0 12-10 22-22 22z m-87 543c-121 0-219-98-219-219 0-47 15-91 40-127 31-50 69-104 69-159v-5c0-4 4-7 8-7h21 41 29 24 29 45 15c4 0 7 3 7 7v4c0 0 0 0 0 0 0 59 41 113 72 164 24 35 38 78 38 123 0 121-98 219-219 219z m3 145h-6c-8 0-13-5-13-12v-79c0-7 5-13 13-13h6c7 0 13 6 13 13v79c0 7-6 12-13 12z m-274-111l-4-4c-5-5-5-13 0-18l56-56c5-5 13-5 18 0l4 4c5 5 5 14 0 19l-56 55c-5 5-13 5-18 0z m-97-247v-6c0-7 6-13 13-13h79c7 0 13 6 13 13v6c0 7-6 13-13 13h-79c-7 0-13-6-13-13z m643 244l-5 4c-5 5-13 5-18 0l-56-56c-5-5-5-13 0-18l5-5c5-4 13-4 18 0l56 56c5 5 5 14 0 19z m93-250v6c0 7-6 13-13 13h-79c-7 0-13-6-13-13v-6c0-7 6-13 13-13h79c7 0 13 6 13 13z" horiz-adv-x="1000" />

<glyph glyph-name="award" unicode="&#xe822;" d="M242 412c18-38 39-72 62-100-143 68-262 192-262 279 0 58 25 88 84 102 13 3 28 5 46 7 1-18 3-37 5-55-76-7-80-23-80-54 0-47 61-120 145-179z m201-262h113c6 80 50 116 105 206 66 88 110 229 114 389 0 5-2 10-5 14-4 3-9 5-14 5h-513c-5 0-10-2-13-5-3-4-5-9-5-14 3-160 48-302 114-390 55-90 98-126 104-205z m460 441c0-48-62-122-146-181-15-31-32-59-50-84 12 5 25 8 38 10 120 71 213 177 213 255 0 72-36 99-130 109-1-19-3-37-5-55 14-1 27-3 38-6 38-8 42-20 42-48z m-348-496h-116c-14-54-60-95-117-102-9-1-16-9-16-18v-29c0-5 4-9 9-9h319c-45 39-74 95-79 158z m229 190c-96 0-174-78-174-175 0-96 78-174 174-174 96 0 175 78 175 174 0 97-79 175-175 175z" horiz-adv-x="1000" />

<glyph glyph-name="award-1" unicode="&#xe823;" d="M339 355c-66 88-111 230-114 390 0 5 2 10 5 14 3 3 8 5 13 5h513c5 0 10-2 14-5 3-4 5-9 5-14-4-160-48-301-114-389-55-90-99-126-105-206h-113c-6 79-49 115-104 205z m-242 236c0 31 4 47 80 54-2 18-4 37-5 55-18-2-33-4-46-7-59-14-84-44-84-102 0-87 119-211 262-279-23 28-44 62-62 100-84 59-145 132-145 179z m806 0c0-48-62-122-146-181-15-31-32-59-50-84 12 5 25 8 38 10 120 71 213 177 213 255 0 72-36 99-130 109-1-19-3-37-5-55 14-1 27-3 38-6 38-8 42-20 42-48z m56-481c0-96-79-174-175-174-96 0-174 78-174 174 0 97 78 175 174 175 96 0 175-78 175-175z m-146 108h-32c-5-12-13-23-25-33s-24-15-34-19v-36c20 7 37 17 51 30v-149h40v207z m-258-123h-116c-14-54-60-95-117-102-9-1-16-9-16-18v-29c0-5 4-9 9-9h319c-45 39-74 95-79 158z" horiz-adv-x="1000" />

<glyph glyph-name="award-2" unicode="&#xe824;" d="M861 639c-11 3-24 5-38 6 2 18 4 36 5 55 94-10 130-37 130-109 0-78-93-184-213-255-13-2-26-5-38-10 18 25 35 53 50 84 84 59 146 133 146 181 0 28-4 40-42 48z m-764-48c0 31 4 47 80 54-2 18-4 37-5 55-18-2-33-4-46-7-59-14-84-44-84-102 0-87 119-211 262-279-23 28-44 62-62 100-84 59-145 132-145 179z m346-441h113c6 80 50 116 105 206 66 88 110 229 114 389 0 5-2 10-5 14-4 3-9 5-14 5h-513c-5 0-10-2-13-5-3-4-5-9-5-14 3-160 48-302 114-390 55-90 98-126 104-205z m112-55h-116c-14-54-60-95-117-102-9-1-16-9-16-18v-29c0-5 4-9 9-9h319c-45 39-74 95-79 158z m404 15c0-96-79-174-175-174-96 0-174 78-174 174 0 97 78 175 174 175 96 0 175-78 175-175z m-187-60c3 4 5 7 9 11 3 4 11 11 23 23 13 11 21 20 26 26 7 9 13 18 16 27 3 8 5 17 5 26 0 16-6 30-17 41-12 11-28 16-48 16-19 0-34-4-47-14-12-9-20-25-22-47l39-4c1 12 4 20 9 25 5 5 11 8 20 8 8 0 14-3 19-7 5-5 7-12 7-21 0-8-2-16-8-24-4-6-15-17-33-34-22-20-37-37-44-49-8-13-12-26-14-40h139v37h-79z" horiz-adv-x="1000" />

<glyph glyph-name="award-3" unicode="&#xe825;" d="M339 355c-66 88-111 230-114 390 0 5 2 10 5 14 3 3 8 5 13 5h513c5 0 10-2 14-5 3-4 5-9 5-14-4-160-48-301-114-389-55-90-99-126-105-206h-113c-6 79-49 115-104 205z m564 236c0-48-62-122-146-181-15-31-32-59-50-84 12 5 25 8 38 10 120 71 213 177 213 255 0 72-36 99-130 109-1-19-3-37-5-55 14-1 27-3 38-6 38-8 42-20 42-48z m-806 0c0 31 4 47 80 54-2 18-4 37-5 55-18-2-33-4-46-7-59-14-84-44-84-102 0-87 119-211 262-279-23 28-44 62-62 100-84 59-145 132-145 179z m458-496h-116c-14-54-60-95-117-102-9-1-16-9-16-18v-29c0-5 4-9 9-9h319c-45 39-74 95-79 158z m404 15c0-96-79-174-175-174-96 0-174 78-174 174 0 97 78 175 174 175 96 0 175-78 175-175z m-106-35c0 13-3 23-11 32-7 9-16 15-28 17 20 11 30 25 30 44 0 12-5 24-15 34-11 12-27 18-46 18-12 0-22-2-31-6-9-4-16-10-21-18-6-7-9-17-12-29l36-7c1 9 4 16 9 21 5 5 11 7 17 7 7 0 13-2 17-6 4-4 6-10 6-17 0-8-3-15-8-19s-14-8-25-7l-4-33c7 2 13 3 18 3 8 0 14-3 20-8 5-6 8-14 8-24 0-11-3-19-9-25-5-6-12-9-20-9-8 0-14 2-20 7-5 6-8 13-10 23l-38-5c2-17 9-31 21-42 13-11 28-16 47-16 20 0 36 6 49 19 13 13 20 28 20 46z" horiz-adv-x="1000" />

<glyph glyph-name="award-4" unicode="&#xe826;" d="M242 412c18-38 39-72 62-100-143 68-262 192-262 279 0 58 25 88 84 102 13 3 28 5 46 7 1-18 3-37 5-55-76-7-80-23-80-54 0-47 61-120 145-179z m201-262h113c6 80 50 116 105 206 66 88 110 229 114 389 0 5-2 10-5 14-4 3-9 5-14 5h-513c-5 0-10-2-13-5-3-4-5-9-5-14 3-160 48-302 114-390 55-90 98-126 104-205z m516-40c0-96-79-174-175-174-96 0-174 78-174 174 0 97 78 175 174 175 96 0 175-78 175-175z m-106-20h-26v130h-33l-89-130v-35h84v-42h38v42h26v35z m50 501c0-48-62-122-146-181-15-31-32-59-50-84 12 5 25 8 38 10 120 71 213 177 213 255 0 72-36 99-130 109-1-19-3-37-5-55 14-1 27-3 38-6 38-8 42-20 42-48z m-348-496h-116c-14-54-60-95-117-102-9-1-16-9-16-18v-29c0-5 4-9 9-9h319c-45 39-74 95-79 158z m234-5v70l-47-70h47z" horiz-adv-x="1000" />

<glyph glyph-name="award-5" unicode="&#xe827;" d="M861 639c-11 3-24 5-38 6 2 18 4 36 5 55 94-10 130-37 130-109 0-78-93-184-213-255-13-2-26-5-38-10 18 25 35 53 50 84 84 59 146 133 146 181 0 28-4 40-42 48z m-764-48c0 31 4 47 80 54-2 18-4 37-5 55-18-2-33-4-46-7-59-14-84-44-84-102 0-87 119-211 262-279-23 28-44 62-62 100-84 59-145 132-145 179z m346-441h113c6 80 50 116 105 206 66 88 110 229 114 389 0 5-2 10-5 14-4 3-9 5-14 5h-513c-5 0-10-2-13-5-3-4-5-9-5-14 3-160 48-302 114-390 55-90 98-126 104-205z m516-40c0-96-79-174-175-174-96 0-174 78-174 174 0 97 78 175 174 175 96 0 175-78 175-175z m-106-27c0 20-6 37-19 49-12 13-27 19-44 19-9 0-18-2-27-6l6 35h75v37h-105l-20-108 32-4c9 10 19 15 30 15 10 0 17-3 23-10 5-6 8-15 8-28 0-14-3-24-9-30-5-7-12-10-20-10-8 0-14 2-20 7-5 6-8 13-10 22l-39-5c2-17 10-31 22-41 12-10 27-15 46-15 24 0 43 9 56 27 10 14 15 29 15 46z m-298 12h-116c-14-54-60-95-117-102-9-1-16-9-16-18v-29c0-5 4-9 9-9h319c-45 39-74 95-79 158z" horiz-adv-x="1000" />

<glyph glyph-name="award-6" unicode="&#xe828;" d="M242 412c18-38 39-72 62-100-143 68-262 192-262 279 0 58 25 88 84 102 13 3 28 5 46 7 1-18 3-37 5-55-76-7-80-23-80-54 0-47 61-120 145-179z m661 179c0-48-62-122-146-181-15-31-32-59-50-84 12 5 25 8 38 10 120 71 213 177 213 255 0 72-36 99-130 109-1-19-3-37-5-55 14-1 27-3 38-6 38-8 42-20 42-48z m-348-496h-116c-14-54-60-95-117-102-9-1-16-9-16-18v-29c0-5 4-9 9-9h319c-45 39-74 95-79 158z m-112 55h113c6 80 50 116 105 206 66 88 110 229 114 389 0 5-2 10-5 14-4 3-9 5-14 5h-513c-5 0-10-2-13-5-3-4-5-9-5-14 3-160 48-302 114-390 55-90 98-126 104-205z m516-40c0-96-79-174-175-174-96 0-174 78-174 174 0 97 78 175 174 175 96 0 175-78 175-175z m-108-30c0 20-6 36-17 48-12 13-26 19-43 19-15 0-27-6-37-17 2 24 6 39 11 47 6 7 13 11 21 11 7 0 12-2 16-6 4-3 6-9 7-17l38 4c-2 17-9 30-19 38-11 9-23 13-39 13-22 0-41-8-55-25-14-16-21-44-21-81 0-37 7-64 21-80 13-16 30-24 51-24 19 0 35 6 48 19 12 13 18 30 18 51z m-66 38c-8 0-14-3-19-9-6-6-8-14-8-26 0-13 3-23 9-30 6-7 12-10 20-10 7 0 13 3 18 8 5 6 7 15 7 28 0 14-2 24-7 30-6 6-12 9-20 9z" horiz-adv-x="1000" />

<glyph glyph-name="award-7" unicode="&#xe829;" d="M784 285c-96 0-174-78-174-175 0-96 78-174 174-174 96 0 175 78 175 174 0 97-79 175-175 175z m65-97c-12-11-23-27-34-47s-21-43-27-66c-6-23-9-43-9-62h-38c1 29 7 58 18 88 11 29 26 56 44 79h-90v37h136v-29z m-607 224c18-38 39-72 62-100-143 68-262 192-262 279 0 58 25 88 84 102 13 3 28 5 46 7 1-18 3-37 5-55-76-7-80-23-80-54 0-47 61-120 145-179z m97-57c-66 88-111 230-114 390 0 5 2 10 5 14 3 3 8 5 13 5h513c5 0 10-2 14-5 3-4 5-9 5-14-4-160-48-301-114-389-55-90-99-126-105-206h-113c-6 79-49 115-104 205z m522 284c-11 3-24 5-38 6 2 18 4 36 5 55 94-10 130-37 130-109 0-78-93-184-213-255-13-2-26-5-38-10 18 25 35 53 50 84 84 59 146 133 146 181 0 28-4 40-42 48z m-227-702h-319c-5 0-9 4-9 9v29c0 9 7 17 16 18 57 7 103 48 117 102h116c5-63 34-119 79-158z" horiz-adv-x="1000" />

<glyph glyph-name="award-8" unicode="&#xe82a;" d="M242 412c18-38 39-72 62-100-143 68-262 192-262 279 0 58 25 88 84 102 13 3 28 5 46 7 1-18 3-37 5-55-76-7-80-23-80-54 0-47 61-120 145-179z m201-262h113c6 80 50 116 105 206 66 88 110 229 114 389 0 5-2 10-5 14-4 3-9 5-14 5h-513c-5 0-10-2-13-5-3-4-5-9-5-14 3-160 48-302 114-390 55-90 98-126 104-205z m112-55h-116c-14-54-60-95-117-102-9-1-16-9-16-18v-29c0-5 4-9 9-9h319c-45 39-74 95-79 158z m348 496c0-48-62-122-146-181-15-31-32-59-50-84 12 5 25 8 38 10 120 71 213 177 213 255 0 72-36 99-130 109-1-19-3-37-5-55 14-1 27-3 38-6 38-8 42-20 42-48z m-123-452c8 0 14 3 18 7 5 5 7 11 7 19 0 7-2 13-7 17-4 5-10 7-18 7-7 0-13-2-18-7s-6-10-6-18c0-7 2-14 6-18 5-4 11-7 18-7z m179-29c0-96-79-174-175-174-96 0-174 78-174 174 0 97 78 175 174 175 96 0 175-78 175-175z m-111-36c0 12-2 22-8 31-6 8-15 15-27 20 9 4 16 9 21 17 5 7 8 16 8 25 0 16-6 28-16 38-11 10-26 15-46 15-20 0-35-5-46-15-10-10-16-22-16-38 0-9 2-17 7-25 5-7 12-13 22-17-12-5-20-13-26-22-5-9-8-19-8-31 0-20 7-36 22-47 12-10 28-15 47-15 20 0 36 6 48 18 12 12 18 27 18 46z m-67 34c-10 0-17-4-22-10-5-7-7-14-7-22 0-11 3-19 8-25 6-6 13-9 21-9 8 0 15 2 20 8 6 6 8 15 8 26 0 9-2 17-8 23-5 6-12 9-20 9z" horiz-adv-x="1000" />

<glyph glyph-name="award-9" unicode="&#xe82b;" d="M784 285c-96 0-174-78-174-175 0-96 78-174 174-174 96 0 175 78 175 174 0 97-79 175-175 175z m45-250c-14-17-32-25-54-25-17 0-30 4-40 13-9 8-16 21-19 38l39 4c1-7 3-13 7-17 4-4 9-6 16-6 8 0 15 4 20 12 6 7 10 23 11 46-10-11-22-17-37-17-16 0-30 6-42 19-12 12-18 29-18 49 0 21 7 37 19 50 12 13 28 19 47 19 21 0 39-8 52-24 13-16 20-43 20-80 0-37-7-65-21-81z m-587 377c18-38 39-72 62-100-143 68-262 192-262 279 0 58 25 88 84 102 13 3 28 5 46 7 1-18 3-37 5-55-76-7-80-23-80-54 0-47 61-120 145-179z m619 227c-11 3-24 5-38 6 2 18 4 36 5 55 94-10 130-37 130-109 0-78-93-184-213-255-13-2-26-5-38-10 18 25 35 53 50 84 84 59 146 133 146 181 0 28-4 40-42 48z m-522-284c-66 88-111 230-114 390 0 5 2 10 5 14 3 3 8 5 13 5h513c5 0 10-2 14-5 3-4 5-9 5-14-4-160-48-301-114-389-55-90-99-126-105-206h-113c-6 79-49 115-104 205z m295-418h-319c-5 0-9 4-9 9v29c0 9 7 17 16 18 57 7 103 48 117 102h116c5-63 34-119 79-158z m163 240c6-7 9-17 9-30 0-11-3-20-8-26-5-6-12-9-19-9-8 0-15 3-20 9-5 7-8 16-8 30 0 13 3 22 7 28 5 6 11 9 19 9 7 0 14-4 20-11z" horiz-adv-x="1000" />

<glyph glyph-name="award-10" unicode="&#xe82c;" d="M242 412c18-38 39-72 62-100-143 68-262 192-262 279 0 58 25 88 84 102 13 3 28 5 46 7 1-18 3-37 5-55-76-7-80-23-80-54 0-47 61-120 145-179z m567-239c-4 3-7 4-12 4s-8-1-11-4c-3-3-6-7-8-14-2-9-3-25-3-46s1-37 3-45c2-8 5-13 8-16 3-2 7-4 11-4s9 2 12 4c3 3 6 8 8 15 2 9 3 24 3 46s-1 36-3 44c-2 8-5 13-8 16z m-254-78h-116c-14-54-60-95-117-102-9-1-16-9-16-18v-29c0-5 4-9 9-9h319c-45 39-74 95-79 158z m404 15c0-96-79-174-175-174-96 0-174 78-174 174 0 97 78 175 174 175 96 0 175-78 175-175z m-243 96h-28c-4-11-12-21-22-29s-21-14-30-17v-32c17 6 32 15 45 27v-133h35v184z m141-93c0 34-6 59-18 74-10 13-24 19-42 19s-31-6-41-18c-12-16-18-40-18-75 0-35 5-60 16-73 11-14 26-21 43-21 18 0 32 6 42 19 12 15 18 40 18 75z m89-3v13h-32v32h-14v-32h-32v-13h32v-33h14v33h32z m-43 481c0-48-62-122-146-181-15-31-32-59-50-84 12 5 25 8 38 10 120 71 213 177 213 255 0 72-36 99-130 109-1-19-3-37-5-55 14-1 27-3 38-6 38-8 42-20 42-48z m-460-441h113c6 80 50 116 105 206 66 88 110 229 114 389 0 5-2 10-5 14-4 3-9 5-14 5h-513c-5 0-10-2-13-5-3-4-5-9-5-14 3-160 48-302 114-390 55-90 98-126 104-205z" horiz-adv-x="1000" />

<glyph glyph-name="ngc-coin" unicode="&#xe82d;" d="M670 704h-340c-40 0-72-32-72-72v-564c0-40 32-72 72-72h340c40 0 72 32 72 72v564c0 40-32 72-72 72z m-170-621c-78 0-140 63-140 140 0 78 62 141 140 141 78 0 141-63 141-141 0-77-63-140-141-140z m187 405c0-19-15-34-34-34h-305c-19 0-35 15-35 34v125c0 19 16 34 35 34h305c19 0 34-15 34-34v-125z" horiz-adv-x="1000" />

<glyph glyph-name="ngc-coin-alt" unicode="&#xe82e;" d="M500 791c-243 0-441-197-441-441 0-243 198-441 441-441 243 0 441 198 441 441 0 244-198 441-441 441z m0-840c-220 0-399 179-399 399 0 220 179 399 399 399 221 0 399-179 399-399 0-220-178-399-399-399z m54 335c9-9 13-20 13-33 0-16-5-28-14-36-9-9-23-14-40-15v104c18-5 32-12 41-20z m-112 205c9 8 22 13 37 16v-93c-17 4-29 9-37 17-9 7-13 17-13 29 0 12 4 23 13 31z m58 212c-195 0-353-158-353-353 0-195 158-353 353-353 195 0 353 158 353 353 0 195-158 353-353 353z m134-541c-29-26-69-42-121-47v-58h-38v57h-9c-24 0-46 1-68 4-21 3-42 7-63 13l9 96c21-8 42-15 64-19 22-5 44-7 66-8l1 112c-52 10-90 26-115 48-24 23-37 53-37 92 0 39 14 70 40 94 28 24 66 38 116 42v55h38v-54c21 0 42-2 62-5 21-3 43-7 63-13l-9-86c-16 8-34 14-53 18-18 4-38 6-58 6h-5v-102c54-10 95-28 121-52 26-23 39-54 39-92 0-41-14-75-43-101z" horiz-adv-x="1000" />

<glyph glyph-name="ngc-submit-coins" unicode="&#xe82f;" d="M906 216c24-89-49-181-196-229-195-65-447-28-563 80-50 47-66 100-53 151 8-29 25-58 53-84 116-109 368-145 563-81 110 37 179 98 196 163z m-196-52c-195-64-447-28-563 81-28 26-45 55-53 83-13-50 3-103 53-150 116-108 368-144 563-80 147 48 220 140 196 229-17-65-86-126-196-163z m0 111c-195-64-447-28-563 81-28 26-45 55-53 83-13-50 3-103 53-150 116-108 368-145 563-80 147 48 220 140 196 229-17-65-86-126-196-163z m-317 310l56-53c-30-3-47-5-51-4-19 0-34 4-44 13-16 16-4 30 39 44m153-79c26 3 43 4 52 4 19 0 34-5 43-14 17-16 6-32-34-48l-61 58m2-77c-38-13-64-11-80 6l-64-22 7-6c16-15 42-23 78-24 33-1 63 3 91 12l12 4 33-31 51 16-34 32c32 12 55 28 68 46 15 20 13 39-6 57-19 18-48 27-88 29-25 2-61-1-108-6l-65 60c19 6 33 9 43 9 13-1 24-6 33-16l65 21-6 6c-16 15-42 23-79 24-30 0-61-3-91-11l-32 31-51-17 33-31c-82-32-104-64-68-98 18-17 48-27 88-28 26-1 61 1 106 7l73-67-9-3m-258 284c195 65 447 28 563-80 116-109 52-249-143-313-195-65-447-29-563 80-116 109-52 249 143 313" horiz-adv-x="1000" />

<glyph glyph-name="ngc-star" unicode="&#xe830;" d="M956 452l-282-204 109-332-283 206-283-206 108 332-281 204 348 1 108 331 108-331 348-1z" horiz-adv-x="1000" />

<glyph glyph-name="ngc-no-image" unicode="&#xe831;" d="M669 704h-340c-40 0-72-32-72-72v-564c0-40 32-72 72-72h340c39 0 72 32 72 72v564c0 40-33 72-72 72z m-108-387c-18 12-39 19-62 19-24 0-45-7-64-19l-17 21c23 16 51 26 81 26 29 0 57-10 79-25l-17-22z m-178-14l21-16c-13-18-20-40-20-63 0-24 7-46 20-64l-21-17c-16 23-25 50-25 80 0 30 9 58 25 80z m36-195l17 22c18-12 39-19 63-19 23 0 45 7 63 19l17-22c-23-16-50-25-80-25-30 0-58 9-80 25z m195 35l-21 17c13 18 21 40 21 64 0 23-8 45-21 63l21 17c16-23 25-51 25-81 0-29-9-57-25-80z m69 298h-370v212h370v-212z m-5-470h-359c-47 0-89 41-89 87v582c0 46 43 89 89 89h359c46 0 90-43 90-89v-582c0-46-43-87-90-87z m-359 746c-40 0-77-37-77-77v-582c0-39 37-75 77-75h359c40 0 78 36 78 75v582c0 40-38 77-78 77h-359z" horiz-adv-x="1000" />

<glyph glyph-name="ngc-sets" unicode="&#xe832;" d="M579 607h-340c-39 0-72-32-72-72v-564c0-40 33-72 72-72h340c40 0 72 32 72 72v564c0 40-32 72-72 72z m-170-621c-77 0-140 63-140 140 0 78 63 140 140 140 78 0 141-62 141-140 0-77-63-140-141-140z m187 405c0-19-15-34-34-34h-305c-19 0-35 15-35 34v125c0 19 16 34 35 34h305c19 0 34-15 34-34v-125z m74 313h-340c-40 0-72-32-72-72v-9h56c4 14 17 25 33 25h305c19 0 35-16 35-35v-124c0-13-8-25-19-31v-462h2c40 0 72 33 72 73v563c0 40-32 72-72 72z m91 97h-340c-40 0-72-32-72-72v-10h56c4 15 17 25 33 25h305c19 0 35-15 35-34v-125c0-13-8-24-19-30v-462h2c40 0 72 33 72 72v564c0 40-32 72-72 72z" horiz-adv-x="1000" />

<glyph glyph-name="pmg-submit-notes" unicode="&#xe833;" d="M544 501c-12 2-30 3-54 3l-28 34c9 2 16 2 21 2 7-1 12-5 16-10l33 7-3 3c-7 8-19 14-37 16-15 2-31 2-46 0l-14 17-26-5 14-18c-42-11-55-26-39-45 8-9 22-16 42-19 13-1 31-2 53-2l32-38-4 0c-20-5-33-2-39 7l-34-7 4-4c7-8 19-14 37-16 16-2 31-2 46 1l6 1 15-17 26 5-15 18c16 4 28 11 36 19 8 9 8 19 0 29-8 9-22 16-42 19z m-109 2c-10 1-16 4-21 9-7 9 0 16 22 20l25-29c-15 0-24 0-26 0z m99-51l-27 32c13 0 22 0 26-1 10-1 17-4 21-9 7-9 1-17-20-22z m143 244l-636-124 176-324 743 179-283 269z m-99-314c-100-21-223 11-274 72-52 60-12 127 88 148 100 21 223-12 274-72 52-61 12-127-88-148z m376-5c3-3 2-7-2-8l-728-175c-4-1-9 1-11 5l-168 310c-2 4 0 8 4 9l10 2 154-285c2-4 7-6 11-5l706 170 24-23z m0-58c3-3 2-6-2-7l-728-176c-4-1-9 1-11 5l-168 311c-2 3 0 7 4 8l10 2 154-285c2-4 7-6 11-5l706 170 24-23z m0-58c3-3 2-6-2-7l-728-176c-4-1-9 2-11 6l-168 310c-2 4 0 8 4 9l10 1 154-285c2-3 7-6 11-5l706 171 24-24z m0-57c3-3 2-6-2-7l-728-176c-4-1-9 1-11 5l-168 310c-2 4 0 8 4 9l10 2 154-285c2-4 7-6 11-5l706 170 24-23z m0-58c3-3 2-6-2-7l-728-176c-4-1-9 1-11 5l-168 311c-2 4 0 7 4 8l10 2 154-285c2-4 7-6 11-5l706 170 24-23z" horiz-adv-x="1000" />

<glyph glyph-name="pinterest" unicode="&#xe834;" d="M500 791c-244 0-442-197-442-441 0-181 109-336 265-404-2 31-1 68 7 101 9 36 57 241 57 241s-14 28-14 69c0 66 38 115 85 115 41 0 60-30 60-67 0-40-26-100-39-156-11-47 23-85 70-85 83 0 140 107 140 234 0 97-65 169-184 169-134 0-218-99-218-211 0-38 12-65 29-86 9-10 10-14 7-25-2-8-7-27-9-35-3-11-12-15-22-11-62 25-91 92-91 168 0 126 106 276 316 276 169 0 280-122 280-253 0-173-96-302-239-302-47 0-92 26-108 55 0 0-25-102-31-121-9-35-27-68-44-95 40-12 82-18 125-18 244 0 442 197 442 441 0 244-198 441-442 441z" horiz-adv-x="1000" />

<glyph glyph-name="wechat" unicode="&#xe835;" d="M595 329c0-11-11-22-27-22-11 0-22 11-22 22 0 10 11 21 22 21 16 0 27-11 27-21z m-98 123c17 0 27 11 27 27 0 16-10 26-27 26-16 0-32-10-32-26 0-16 16-27 32-27z m-152 53c-16 0-32-10-32-26 0-16 16-27 32-27 17 0 28 11 28 27 0 16-11 26-28 26z m342-155c-11 0-22-11-22-21 0-11 11-22 22-22 16 0 27 11 27 22 0 10-11 21-27 21z m253 2c0-118-47-225-123-304-79-85-192-139-317-139-125 0-238 54-317 139-76 79-123 186-123 304 0 242 197 439 440 439 243 0 440-197 440-439z m-504-119c-4 14-7 29-7 45 0 93 82 169 185 169 7 0 14 0 21-1-19 86-112 150-219 150-119 0-217-80-217-182 0-58 33-107 87-144l-22-65 76 38c27-5 49-11 76-11 7 0 13 1 20 1z m376 47c0 86-87 156-184 156-104 0-185-70-185-156 0-85 81-155 185-155 21 0 43 6 65 11l59-32-16 53c43 32 76 75 76 123z" horiz-adv-x="1000" />

<glyph glyph-name="youku" unicode="&#xe836;" d="M500 555c-113 0-205-92-205-205 0-113 92-205 205-205s205 92 205 205c0 113-92 205-205 205z m137-212c-64-46-134-84-209-118-6-2-13 2-13 8-7 80-7 158 0 234 0 7 7 11 13 8 83-32 151-72 209-117 6-4 5-12 0-15z m-137 448c-243 0-440-197-440-439 0-118 47-225 123-304 79-85 192-139 317-139 125 0 238 54 317 139 76 79 123 186 123 304 0 242-197 439-440 439z m0-736c-163 0-295 132-295 295 0 163 132 295 295 295 163 0 295-132 295-295 0-163-132-295-295-295z" horiz-adv-x="1000" />

<glyph glyph-name="youtube" unicode="&#xe837;" d="M500 796c-246 0-445-199-445-445s199-445 445-445 445 199 445 445-199 445-445 445z m285-466c0-47-5-93-5-93s-6-39-23-56c-22-23-46-23-57-25-80-5-200-6-200-6s-148 2-194 6c-13 3-41 2-63 25-17 17-22 56-22 56s-6 46-6 92v44c0 46 6 92 6 92s5 39 22 57c22 22 46 23 57 24 80 6 200 6 200 6h0c0 0 120 0 200-6 11-1 35-2 57-24 17-18 23-57 23-57s5-46 5-92v-43z m-344 107l154-80-154-80 0 160z" horiz-adv-x="1000" />

<glyph glyph-name="ol-restoration" unicode="&#xe838;" d="M913 762v-824h-575v48q14-2 30-2v-16h515v764h-515v-36q-16-1-30-3v69z m-301-653a326 326 0 1 1-461 462h0a326 326 0 0 1 461-462z m-21 440a296 296 0 1 0-419-419 296 296 0 0 0 0 419h0a296 296 0 0 0 419 0z m-430 11h0z m429-153a217 217 0 1 1-367-205h-33a25 25 0 1 1 0-50h95a25 25 0 0 1 25 25v95a25 25 0 1 1-50 0v-37a166 166 0 1 0 286 113v0a166 166 0 0 0-166-165 25 25 0 0 1 0-50c1 0 1 0 1 0a217 217 0 0 1 209 274z m-146-105a15 15 0 0 1-3 21l-42 32v87a15 15 0 0 1-30 0v-95a15 15 0 0 1 6-12l48-36a15 15 0 0 1 21 3z" horiz-adv-x="1000" />

<glyph glyph-name="facebook" unicode="&#xe839;" d="M500 789c-242 0-438-197-438-439 0-242 196-439 438-439s439 197 439 439c0 242-197 439-439 439z m150-245l-54 0c-43 0-51-21-51-51v-65h102l-13-103h-89v-265h-106v265h-89v103h89v76c0 88 53 136 132 136 38 0 70-3 79-4v-92z" horiz-adv-x="1000" />

<glyph glyph-name="submit-comics" unicode="&#xe83a;" d="M915 221l-426-161-10 4-406 181c-14 6-20 22-14 36 6 14 22 21 36 14l396-176 404 154c15 5 30-2 36-16 5-14-2-30-16-36z m0 105l-425-162-10 5-6 3-436 194 311 370 448-198-66-78 182-82c8-3 15-9 18-17 5-14-2-30-16-35z m-89 28l-133 62-140-165 273 103z m105-194c-6 14-21 21-36 15l-409-155-391 181c-14 6-30 0-36-14-6-13 0-30 13-36l402-185 10-5 431 163c14 5 21 21 16 36z" horiz-adv-x="1000" />

<glyph glyph-name="awards" unicode="&#xe83b;" d="M707 277c189 31 242 242 242 358 0 29-24 52-53 52h-136c-4 47-8 78-8 78h-503c0 0-4-31-8-78h-137c-29 0-53-23-53-52 0-116 53-328 243-359 35-70 91-122 178-131-4-59-16-158-51-158h-53c-27 0-25-11-25-26s-2-26 25-26h264c27 0 25 12 25 26s2 26-25 26h-53c-35 0-47 98-51 158 88 9 144 61 179 132z m-603 358h134c-3-87 1-202 32-300-166 55-166 300-166 300z m792 0c0 0 0-244-166-300 32 98 36 213 32 300h134z" horiz-adv-x="1000" />

<glyph glyph-name="ngc-plus" unicode="&#xe83c;" d="M119 274v151h302v305h158v-305h303v-151h-303v-306h-158v306h-302z" horiz-adv-x="1000" />

<glyph glyph-name="price-guide" unicode="&#xe83d;" d="M531 735v-44c33-3 62-9 85-18 24-9 45-22 63-40 13-14 24-28 32-43 7-15 11-28 11-40 0-14-5-25-17-35-11-10-25-15-41-15-30 0-50 14-59 43-10 34-35 56-74 67v-169c39-9 69-17 92-25 23-7 43-18 61-33 19-15 34-32 44-53 11-21 16-43 16-68 0-31-8-60-25-87-16-27-41-49-73-66-32-17-71-27-115-30v-101c0-16-2-28-5-35-4-8-12-11-24-11-11 0-19 3-23 9-5 6-7 15-7 27v110c-36 3-68 11-95 22-27 12-50 26-68 43-18 17-31 34-40 52-9 19-13 37-13 54 0 13 6 25 17 35 12 11 27 16 44 16 14 0 26-3 35-8 10-6 16-14 20-24 9-23 16-40 22-51 6-12 16-23 28-33 13-9 29-17 50-22v189c-41 10-76 21-104 33-28 13-50 30-68 53-17 23-26 52-26 88 0 46 17 84 51 114 34 30 83 47 147 52v43c0 23 10 34 29 34 20 0 30-11 30-33z m-59-279v156c-26-7-46-16-61-27-14-11-22-28-22-50 0-22 7-38 21-49 14-11 34-21 62-30z m59-120v-178c31 5 56 16 73 33 17 16 25 36 25 57 0 24-8 42-25 55-16 13-41 24-73 33z" horiz-adv-x="1000" />

<glyph glyph-name="census" unicode="&#xe83e;" d="M612 41c0-33-27-61-60-61h-84c-33 0-60 28-60 61v638c0 33 27 61 60 61h84c33 0 60-28 60-61v-638z m248 453c0 34-27 61-60 61h-84c-33 0-61-27-61-61v-453c0-33 28-61 61-61h84c33 0 60 28 60 61v453z m-505 57c0 33-27 60-60 60h-84c-33 0-61-27-61-60v-510c0-33 28-61 61-61h84c33 0 60 28 60 61v510z" horiz-adv-x="1000" />

<glyph glyph-name="increase" unicode="&#xe83f;" d="M680 293v-343h-360v343h-241l421 457 421-457h-241z" horiz-adv-x="1000" />

<glyph glyph-name="decrease" unicode="&#xe840;" d="M320 407v343h360v-343h241l-421-457-421 457h241z" horiz-adv-x="1000" />

<glyph glyph-name="filter" unicode="&#xe841;" d="M850 580l-267-349c-1-3-2-6-2-9v-202c0-8-7-14-14-14h-133c-7 0-14 6-14 14v201c0 3-1 6-3 9l-267 350c-7 9-1 22 11 22h678c12 0 18-13 11-22z m64 54v52c0 4-4 8-8 8h-812c-4 0-8-4-8-8v-52c0-5 4-8 8-8h812c4 0 8 3 8 8z" horiz-adv-x="1000" />

<glyph glyph-name="ngc-variety" unicode="&#xe842;" d="M583 294v-214h102c7 42 43 74 87 74 49 0 89-40 89-89s-40-89-89-89c-44 0-80 32-87 74h-117c-9 0-15 6-15 15v480h-86c-8-84-78-149-164-149-90 0-164 73-164 164 0 91 74 164 164 164 86 0 156-65 164-149h218c7 42 43 74 87 74 49 0 89-40 89-89 0-49-40-89-89-89-44 0-80 32-87 74h-102v-221h102c7 42 43 74 87 74 49 0 89-40 89-89s-40-89-89-89c-44 0-80 32-87 74h-102z" horiz-adv-x="1000" />

<glyph glyph-name="ngc-details" unicode="&#xe843;" d="M633 485c-37 33-90 50-152 50h-143v-18l7-2c17-5 18-28 17-56 0-3 0-5 0-8v-204c0-4 0-7 0-10 1-27 1-45-20-59l-4-3v-16h140c125 0 212 79 212 191 0 56-19 103-57 135z m-197-12c14 3 27 4 40 4 88 0 134-46 134-133 0-62-38-127-144-127-10 0-20 1-30 2v254z m427-486h-726v726h726v-726z m-679 47h632v632h-632v-632z" horiz-adv-x="1000" />

<glyph glyph-name="back" unicode="&#xe844;" d="M771 341c0-11-8-20-19-20l-429 1 168-169c8-8 8-21 0-28l-14-14c-7-8-20-8-27 0l-226 226c-8 8-8 21 0 28l7 8 221 226c8 8 20 9 28 1l13-14c8-8 8-21 0-28l-172-177 431 0c10 0 19-9 19-20l0-20z m56-318c88 87 136 203 136 327 0 124-48 240-136 327-87 88-203 136-327 136s-240-48-327-136c-87-87-136-203-136-327 0-124 49-240 136-327 87-88 203-136 327-136s240 48 327 136z m83 327c0-226-184-410-410-410s-410 184-410 410 184 410 410 410 410-184 410-410z" horiz-adv-x="1000" />

<glyph glyph-name="loading" unicode="&#xe845;" d="M462 850c-6 0-11-5-11-11l0-183 0 0c0-6 5-11 11-11l69 0c1 0 1 0 1 0 7 0 12 5 12 11l0 183 0 0c0 6-5 11-12 11l-69 0c0 0 0 0-1 0z m250-47c-4 1-8-2-10-5l-91-158 0 0c-4-6-2-13 4-16l60-34c0-1 0-1 0-1 6-3 13-1 16 4l91 158c3 6 2 13-4 16l-61 35c-1 1-3 1-5 1z m-428-2c-2 0-4-1-6-2l-61-35c-5-3-7-10-4-16l91-157c0 0 0 0 0 0 3-6 10-8 16-5l61 35c5 4 7 11 4 16l-91 157c0 1 0 1 0 1-2 4-6 6-10 6z m620-163c-2 0-4 0-6-1l-157-91c0 0 0 0 0 0-6-3-8-10-5-16l35-61c4-5 11-7 16-4l157 91c1 0 1 0 1 0 6 3 7 11 4 16l-35 61c-2 4-6 6-10 5z m-810-4c-5 0-9-2-11-6l-35-61c-3-5-1-12 4-15l158-91 0 0c6-4 13-2 16 4l35 60c0 0 0 0 0 0 3 6 1 13-4 16l-158 91c-2 1-4 2-5 2z m712-235l0 0c-6 0-11-5-11-11l0-69c0-1 0-1 0-1 0-7 5-12 11-12l183 0 0 0c6 0 11 5 11 12l0 69c0 0 0 0 0 1 0 6-5 11-11 11l-183 0z m-794-5l0 0c-7 0-12-5-12-12l0-69c0 0 0 0 0-1 0-6 5-11 12-11l182 0 0 0c6 0 11 5 11 11l0 69c0 1 0 1 0 1 0 7-5 12-11 12l-182 0z m772-153c-4 0-8-2-10-6l-34-60c-1 0-1 0-1 0-3-6-1-13 4-16l158-91c6-3 13-1 16 4l35 61c3 5 1 12-4 15l-158 92 0 0c-2 1-4 1-6 1z m-566-5c-1 0-3 0-5-1l-157-91c0 0-1 0-1 0-5-3-7-10-4-16l35-61c3-5 10-7 16-4l157 91c0 0 0 0 0 0 6 3 8 10 5 16l-35 61c-3 3-7 6-11 5z m468-121c-2 0-4 0-6-1l-61-35c-5-4-7-11-4-16l91-157c0-1 0-1 0-1 3-6 11-7 16-4l61 35c5 3 7 10 4 16l-91 157c0 0 0 0 0 0-2 4-6 6-10 6z m-367-2c-4 0-8-2-10-6l-91-158c-3-6-1-13 4-16l61-35c5-3 12-1 15 4l92 158 0 0c3 6 1 13-5 16l-60 35c0 0 0 0 0 0-2 1-4 1-6 2z m149-58c-7 0-12-5-12-11l0-183 0 0c0-6 5-11 12-11l69 0c0 0 0 0 1 0 6 0 11 5 11 11l0 183 0 0c0 6-5 11-11 11l-69 0c-1 0-1 0-1 0z" horiz-adv-x="1000" />

<glyph glyph-name="copy" unicode="&#xe846;" d="M832 635h-138v117a52 52 0 0 1-52 52h-474a52 52 0 0 1-52-52v-635a52 52 0 0 1 52-52h138v-117a52 52 0 0 1 52-52h474a52 52 0 0 1 52 52v635a52 52 0 0 1-52 52z m-526-500h-120v599h438v-99h-266a52 52 0 0 1-52-52z m508-169h-438v599h318v0h120z" horiz-adv-x="1000" />

<glyph glyph-name="sig-label" unicode="&#xe847;" d="M557 164c17 23 37 53 59 73l-28 28-28 28c-20-22-50-42-74-59-2-2-3-4-3-6-5-52-18-75-33-92-3-3-3-7 0-9l0 0 0 0c2-3 6-3 9 0 16 15 40 28 91 33 3 0 5 2 7 4z m-45 25c-7 7-7 18 0 25 7 7 18 7 25 0 7-7 7-18 0-25-7-7-18-7-25 0z m445 427l-18 18c-20 19-49 12-74-13l-185-185 79-79 185 185c24 25 32 55 13 74z m-91-89l-79-78c-5-6-13-7-17-2-5 4-4 12 2 17l78 79c0 0 36 51 42 57 10 11 25 12 34 4l1-1c8-8 6-24-4-34-6-6-57-42-57-42z m-216-264c-4-3-4-10 0-13l-10-11-7 7-64 64-7 7 11 10c3-4 9-4 13 0l88 88 64-64-88-88z m-563-140c-8 0-2 9 4 9-4 0-5-2-4-1 1 1 2 2 2 2 3 3 6 6 8 8 8 9 15 17 23 25 18 20 36 41 55 60 10 9 23 25 37 28 19 4 7-25 5-32-7-19-15-36-22-54-3-6-6-13-7-19-1-1-1-4-2-5 0-1 1-2 0-2 0 0-2 3-3 1 1 1 6 3 7 4 3 2 6 4 9 7 10 8 19 16 28 24 14 13 27 25 41 37 6 4 14 12 22 9 7-2 5-13 4-18-2-18-9-36-3-53 5-13 17-17 28-9 7 6 12 14 21 17 7 2 14 1 20-2 11-3 21-8 31-12 20-7 42-12 63-15 8-2 2-10-4-9-23 4-45 9-67 17-11 4-21 9-32 13-8 2-11 0-16-6-9-10-21-18-35-16-33 5-21 52-18 74 1 3 0 9 1 12 0 0 2-1 2-1-1-1-3-2-5-3-13-10-25-22-37-33-5-4-60-61-68-41-3 7 4 20 7 26 7 17 15 34 21 51 3 8 6 16 8 24 0 1 0 5 0 6 0 0 2 0 2 0-1-1-5-3-6-4-17-12-31-28-45-43-16-17-31-35-47-52-7-7-17-24-28-24l0 0z m632 174v-206c0-20-16-36-36-36h-615c-19 0-36 16-36 36v312c0 20 17 36 36 36h590l-23-23h-567c-7 0-13-6-13-13v-312c0-7 6-13 13-13h615c7 0 14 6 14 13v184l22 22z" horiz-adv-x="1000" />

<glyph glyph-name="goto-first" unicode="&#xe848;" d="M623 613c10 10 10 27 0 37l-19 18c-10 10-26 10-36 0l-293-295c-10-10-10-26 0-36l9-10 287-295c10-10 26-10 36 0l18 18c10 10 10 27 0 37l-261 267 259 259z m268 0c10 10 10 27 0 37l-18 18c-10 10-27 10-37 0l-293-295c-10-10-10-26 0-36l9-10 288-295c10-10 26-10 35 0l18 18c10 10 10 27 0 37l-260 267 258 259z m-744-588l-24 0c-13-1-23 10-23 23l0 603c0 13 10 24 23 24l24 1c13 0 24-11 24-24l0-603c0-13-11-24-24-24z" horiz-adv-x="1000" />

<glyph glyph-name="email" unicode="&#xe849;" d="M894 446l-295-227 294-226c7-5 13-10 18-15v483c-5-5-10-10-17-15l0 0 0 0z m-493-227l-294 227c-7 5-13 10-18 15v-483c5 5 11 10 17 15l295 226 0 0z m341 542h-484c-11 0-20-9-20-20v-349l194-149 27 20c13 9 27 13 41 13h1c14 0 27-4 39-12l28-21 194 149v349c0 11-9 20-20 20z m-139-359c-25-14-55-21-91-21-34 0-63 6-88 17-25 12-44 29-56 52-12 22-18 47-18 74 0 29 7 56 20 82 14 25 33 44 57 56 24 13 52 19 82 19 27 0 50-5 70-15 21-10 36-24 47-43 11-19 16-40 16-62 0-26-8-50-24-72-21-27-47-40-79-40-9 0-15 1-19 4-5 3-8 8-9 13-12-11-27-17-43-17-17 0-31 6-43 18-11 11-17 27-17 47 0 24 7 47 21 67 17 24 38 37 64 37 18 0 32-7 41-22l4 18h41l-24-112c-1-7-2-12-2-14 0-2 1-4 2-5 1-2 2-2 4-2 5 0 12 3 20 9 10 8 19 18 25 31 7 14 10 28 10 42 0 25-9 47-28 64-18 17-44 26-77 26-28 0-52-6-72-17-19-12-34-28-44-49-10-21-15-43-15-65 0-22 6-42 17-60 11-18 26-32 46-40 20-8 43-12 69-12 25 0 46 3 64 10 18 7 32 18 43 32h33c-10-22-26-38-47-50z m-86 178c6-6 8-15 8-27 0-10-2-22-6-34-4-12-8-21-14-28-4-4-8-7-12-10-5-2-10-4-16-4-8 0-15 3-20 9-5 7-8 16-8 30 0 9 2 21 6 34 4 12 9 22 17 29 7 7 16 11 25 11 8 0 15-4 20-10z m-388-104c-11 8-17 15-19 19 4 3 7 6 8 7l83 59v-61-79l-72 55 0 0 0 0z m670 85l83-59c1-1 5-4 8-7-2-4-7-10-19-19l-72-55v79 61l0 0z m72-598c12-8 18-15 20-19-5-3-11-5-17-5h-748c-6 0-12 2-17 5 2 4 8 10 21 20l351 269c5 3 12 5 19 5 7 0 14-1 18-4l353-271 0 0z" horiz-adv-x="1000" />

<glyph glyph-name="track-price" unicode="&#xe84a;" d="M815 518c-7 9-16 16-27 22-11 5-26 7-43 7h-42v-187h31c21 0 39 3 52 10 14 6 24 15 31 25 6 9 11 19 13 30 2 10 3 19 3 27 0 12-1 23-4 35-2 12-7 22-14 31z m-339-177c10 7 18 13 23 20 6 8 8 17 8 27 0 6-1 11-4 14-3 4-7 5-12 5-8 0-13-3-18-8-5-7-7-14-7-22 0-6 1-12 3-19 2-5 4-11 7-17z m-24-33c-8-5-15-12-19-20-6-9-9-19-9-31 0-10 3-19 8-25 5-6 11-9 20-9 7 0 14 2 20 5 6 3 11 7 16 12-7 13-14 25-20 37-6 10-11 21-16 31z m465 391h-384-23-427c-33 0-60-27-60-61v-524c0-34 27-61 60-61h427 23 384c34 0 61 27 61 61v524c0 34-27 61-61 61z m-539-552h-201v22c6 0 14 1 26 2 11 1 19 3 24 4 6 3 11 7 14 12 3 5 5 11 5 19v343h-18c-6 0-14-1-23-1-9 0-18-1-26-2-7-1-13-5-21-12-7-7-13-15-19-24-6-9-11-18-16-28-5-10-8-19-10-25h-21v115h371v-115h-21c-2 7-5 15-10 25-4 10-10 19-15 28-6 9-13 17-20 24-7 7-14 11-21 12-6 1-14 2-23 2-9 0-18 1-26 1h-18v-340c0-7 2-13 5-18 2-6 7-10 14-13 4-1 11-3 23-6 11-2 20-3 27-3v-22z m195 52h-60l-15 25c-3-3-6-6-8-8-5-4-10-8-16-11-6-4-12-7-17-8-6-2-13-3-19-3-15 0-28 4-39 14-10 10-15 23-15 39 0 17 5 31 16 44 9 12 24 23 43 34-3 8-6 14-8 20-3 7-4 15-4 23 0 9 2 17 5 25 3 8 8 14 13 20 6 5 13 9 20 12 8 3 16 4 24 4 12 0 22-3 30-11 8-7 12-17 12-29 0-14-4-26-12-36-8-10-21-19-39-29 6-12 11-22 15-30 4-8 10-17 16-27 3 4 6 8 8 12 4 5 8 12 12 19 3 5 5 9 6 13 2 4 2 6 2 8 0 0-1 1-3 2-4 2-9 3-15 5l-5 1 4 18h85l-4-19-3 0c-4-1-9-2-15-3-6-2-11-4-15-9-2-2-5-5-8-10l-12-17c-3-6-8-12-13-20-5-7-10-13-14-17 3-5 6-10 9-14 4-5 7-8 9-10 3-2 8-4 14-5 6-2 11-3 15-3l6 0-5-19z m322 209c-9-17-21-31-36-42-16-11-32-19-50-25-19-5-38-7-58-7h-48v-129c0-7 1-13 4-18 2-6 7-10 14-13 3-1 10-2 19-3 9-2 17-2 25-2v-22h-182v22c4 0 11 1 20 2 9 1 16 2 19 3 6 3 11 7 13 12 3 5 4 11 4 19v306c0 7-1 14-3 19-2 6-6 10-14 13-7 2-15 4-22 5-8 2-14 2-19 3v21h193c40 0 72-10 97-29 24-19 37-44 37-76 0-22-5-42-13-59z" horiz-adv-x="1000" />

<glyph glyph-name="block-letter" unicode="&#xe84b;" d="M327 336c17-17 25-37 25-62 0-34-8-60-24-77-15-17-38-26-68-26-18 0-32 3-42 9-10 7-16 16-16 29v150c5 0 11 0 20 0 9 1 20 1 33 1 31 0 55-8 72-24z m-45 54c12 4 21 11 29 19 7 9 12 18 15 28 3 11 4 23 4 37 0 23-6 41-19 55-13 13-33 20-60 20-7 0-15-1-24-1-10 0-18 0-25-1v-163h38c17 0 31 2 42 6z m205 299v-645h-407c-33 0-60 27-60 60v525c0 33 27 60 60 60h407z m-61-426c0 19-4 36-12 49-8 14-19 25-31 33-12 8-25 15-40 20-15 4-29 7-41 9v2c14 3 26 8 38 13 12 6 23 12 32 20 10 9 17 19 23 30 5 12 8 25 8 40 0 18-4 32-12 44-7 12-17 22-29 29-12 7-26 12-39 15-14 3-29 5-44 5h-196v-21c5-1 11-2 19-3 7-2 14-4 20-7 6-3 11-8 13-13 3-5 4-11 4-18v-305c0-7-2-13-4-18-3-5-7-9-13-11-4-2-11-4-20-5-9-1-16-2-21-2v-22h201c18 0 35 3 52 7 17 5 32 12 46 21 13 10 25 22 33 36 9 15 13 32 13 52z m554 366v-525c0-33-27-60-60-60h-407v645h407c33 0 60-27 60-60z m-63-355h-21c-4-12-12-27-23-46-11-18-20-32-28-42-3-3-8-5-13-7-6-3-13-4-20-5-7-2-14-2-22-3-8 0-16 0-23 0-17 0-30 0-39 1-9 1-16 4-20 7-5 4-8 10-9 17-2 7-2 18-2 31v285c0 7 1 13 4 19 2 5 7 9 13 12 4 1 11 3 20 5 9 1 16 2 21 3v21h-179v-21c6-1 12-2 21-4 8-3 14-5 19-7 7-4 11-8 14-13 2-5 3-11 3-18v-304c0-8-1-14-4-19-3-5-7-9-13-12-4-1-10-2-19-3-9-1-16-2-21-2v-22h332l9 127z" horiz-adv-x="1000" />

<glyph glyph-name="ol-pressing" unicode="&#xe84c;" d="M936 762v-824h-575v48q14-2 30-2v-16h515v764h-515v-36q-16-1-30-3v69z m-301-653a326 326 0 0 1-461 462h0a326 326 0 0 1 461-462z m-231 527a296 296 0 1 0-209-87h0a294 294 0 0 0 209 87z m-197-228c31 0 47 15 60 27 11 10 20 18 39 18 18 0 27-8 38-18 13-12 29-27 60-27 31 0 47 15 60 27 11 10 20 18 39 18s27-8 38-18c13-12 30-27 60-27a16 16 0 0 1 0 32c-18 0-27 8-38 18-13 12-29 27-60 27-31 0-47-15-60-27-11-10-20-18-39-18-18 0-27 8-38 18-13 12-30 27-60 27-31 0-47-15-60-27-12-10-21-18-39-18a16 16 0 0 1 0-32z m394-65c-18 0-27 8-38 18-13 12-29 27-60 27-31 0-47-15-60-27-11-10-20-18-39-18-18 0-27 8-38 18-13 12-30 27-60 27-31 0-47-15-60-27-12-10-21-18-39-18a16 16 0 0 1 0-32c31 0 47 15 60 27 11 10 20 18 39 18 18 0 27-8 38-18 13-12 29-27 60-27 31 0 47 15 60 27 11 10 20 18 39 18s27-8 38-18c13-12 30-27 60-27a16 16 0 0 1 0 32z m0-98c-18 0-27 9-38 19-13 12-29 27-60 27-31 0-47-15-60-27-11-10-20-19-39-19-18 0-27 9-38 19-13 12-30 27-60 27h0c-31 0-47-15-60-27-12-10-21-19-39-19a16 16 0 0 1 0-31c31 0 47 14 60 26 11 11 20 19 39 19 18 0 27-8 38-19 13-11 29-26 60-26 31 0 47 15 60 26 11 11 20 19 39 19s27-8 38-19c13-11 30-26 60-26a16 16 0 0 1 0 31z" horiz-adv-x="1000" />

<glyph glyph-name="news" unicode="&#xe84d;" d="M136 749v-798c0-20 16-37 36-37h656c20 0 36 17 36 37v798c0 20-16 37-36 37h-656c-20 0-36-17-36-37z m677-783h-626v768h626v-768z m-370 533c0-11-9-20-20-20h-176c-11 0-20 9-20 20v176c0 11 9 20 20 20h176c11 0 20-9 20-20v-176z m305 164h-228c-11 0-20 7-20 16s9 16 20 16h228c11 0 20-7 20-16s-9-16-20-16z m0-92h-228c-11 0-20 7-20 16 0 9 9 16 20 16h228c11 0 20-7 20-16 0-9-9-16-20-16z m0-92h-228c-11 0-20 7-20 16 0 9 9 16 20 16h228c11 0 20-7 20-16 0-9-9-16-20-16z m-497-55h501c11 0 20-7 20-16s-9-16-20-16h-501c-11 0-20 7-20 16s9 16 20 16z m500-124h-501c-11 0-20 7-20 16s9 16 20 16h501c11 0 20-7 20-16s-9-16-20-16z m-501-60h501c11 0 20-8 20-17 0-8-9-16-20-16h-501c-11 0-20 8-20 16 0 9 9 17 20 17z m-2-95h501c11 0 20-7 20-16 0-9-9-16-20-16h-501c-11 0-20 7-20 16 0 9 9 16 20 16z m3-93h501c11 0 20-7 20-16s-9-16-20-16h-501c-11 0-20 7-20 16s9 16 20 16z" horiz-adv-x="1000" />

<glyph glyph-name="transaction" unicode="&#xe84e;" d="M476 310v-18a16 16 0 0 1 16-16h13a16 16 0 0 1 15 16v18a90 90 0 0 1 0 180v92c24-3 41-21 41-46v-6a16 16 0 0 1 16-16h13a16 16 0 0 1 15 16v6a89 89 0 0 1-85 90v18a16 16 0 0 1-15 16h-13a16 16 0 0 1-16-16v-18a90 90 0 0 1 0-180v-91c-23 2-40 21-40 45v7a16 16 0 0 1-16 15h-13a16 16 0 0 1-15-15v-7a89 89 0 0 1 84-90z m-40 226c0 25 17 43 40 46v-92c-23 3-40 22-40 46z m125-136c0-24-17-43-41-45v91c24-2 41-21 41-46z m289 286v11a14 14 0 0 1-14 14h-675a14 14 0 0 1-14-14v-11a14 14 0 0 1 14-14h43v-755a14 14 0 0 1 22-12l43 28 50-25a14 14 0 0 1 12 0l52 26 51-26a14 14 0 0 1 13 0l51 26 52-26a14 14 0 0 1 12 0l52 26 52-26a14 14 0 0 1 12 0l50 25 43-28a14 14 0 0 1 21 12v755h44a14 14 0 0 1 14 14z m-96-14v-710l-20 12a14 14 0 0 1-14 0l-48-25-56 26a14 14 0 0 1-12 0l-48-26-55 26a14 14 0 0 1-13 0l-47-26-56 26a14 14 0 0 1-12 0l-48-26-52 26a14 14 0 0 1-14-1l-16-11v709z m-471-447v11a14 14 0 0 0 13 14h273a14 14 0 0 0 13-14v-11a14 14 0 0 0-13-14h-273a14 14 0 0 0-13 14z m329 25h89a14 14 0 0 0 13-14v-11a14 14 0 0 0-13-14h-89a14 14 0 0 0-13 14v11a14 14 0 0 0 13 14z m-329-114v12a14 14 0 0 0 13 13h273a14 14 0 0 0 13-13v-12a14 14 0 0 0-13-13h-273a14 14 0 0 0-13 13z m431 12v-12a14 14 0 0 0-13-13h-89a14 14 0 0 0-13 13v12a14 14 0 0 0 13 13h89a14 14 0 0 0 13-13z m-431-100v11a14 14 0 0 0 13 14h273a14 14 0 0 0 13-14v-11a14 14 0 0 0-13-14h-273a14 14 0 0 0-13 14z m431 11v-11a14 14 0 0 0-13-14h-89a14 14 0 0 0-13 14v11a14 14 0 0 0 13 14h89a14 14 0 0 0 13-14z m223 724v-184a14 14 0 0 0-14-14h-95a14 14 0 0 0-13 14v11a14 14 0 0 0 13 14h70v134h-799v-134h76a14 14 0 0 0 14-14v-11a14 14 0 0 0-14-14h-98a14 14 0 0 0-14 14v184a14 14 0 0 0 14 14h846a14 14 0 0 0 14-14z" horiz-adv-x="1000" />

<glyph glyph-name="chat-boards" unicode="&#xe84f;" d="M882 8c5-4 1-12-6-11-67 14-124 39-160 71-2 2-6 3-10 3-20-4-41-6-63-6-107 0-199 44-245 108 4 0 7 0 10 0 100 0 195 29 267 81 66 48 107 112 116 181 77-36 128-98 128-169 0-58-34-110-88-147-4-3-6-7-6-12 5-36 25-70 57-99z m-474 215c-14 0-27 0-41 2-5 0-9-2-12-6-28-46-94-86-178-107-7-2-11 6-6 10 36 37 55 80 50 124 0 5-1 10-2 14-1 4-4 7-7 9-84 44-139 116-139 197 0 135 150 244 335 244s336-109 336-244c0-134-150-243-336-243z m-130 243c0 20-16 36-36 36s-35-16-35-36c0-20 16-36 35-36s36 16 36 36z m261 0c0-20 16-36 35-36 20 0 36 16 36 36 0 20-16 36-36 36-19 0-35-16-35-36z m-131-36c20 0 36 16 36 36 0 20-16 36-36 36s-35-16-35-36c0-20 16-36 35-36z" horiz-adv-x="1000" />

<glyph glyph-name="signing" unicode="&#xe850;" d="M313 94l120-32-87-72z m114 477l148-39-119-443-148 39z m21 77l148-40-13-45-148 39z m96 124a77 77 0 0 0 15-3 76 76 0 0 0 54-94l-9-35-148 39 10 36a76 76 0 0 0 63 56 77 77 0 0 0 15 1z m-9 32c-3 0-7-1-10-1a109 109 0 0 1-91-80l-162-601a16 16 0 0 1 0-9l48-151-15-43a16 16 0 1 1 31-10l15 44 127 104a16 16 0 0 1 5 8l144 535 61-17a10 10 0 0 0 8-12l-65-249a16 16 0 0 1 12-19 17 17 0 0 1 12 1 16 16 0 0 1 8 10l64 249a43 43 0 0 1-30 52l-62 16 10 36a109 109 0 0 1-77 133 107 107 0 0 1-33 4z" horiz-adv-x="1000" />

<glyph glyph-name="up-down-arrow" unicode="&#xe851;" d="M228 494l249 270c12 14 34 14 47 0l248-270c19-20 4-54-23-54h-498c-27 0-42 34-23 54z m544-288l-248-270c-13-14-35-14-47 0l-249 270c-19 21-4 54 23 54h498c27 0 42-33 23-54z" horiz-adv-x="1000" />

<glyph glyph-name="goto-last" unicode="&#xe852;" d="M637 354l-260-267c-11-10-11-27-1-37l18-18c10-10 26-10 36 0l287 295 9 10c10 10 10 26 0 36l-293 295c-10 10-26 10-36 0l-18-18c-10-10-10-27 0-37l258-259z m-269 0l-260-267c-10-10-10-27 0-37l18-18c9-10 26-10 36 0l287 295 9 10c10 10 10 26 0 36l-293 295c-10 10-27 10-37 0l-18-18c-10-10-10-27 0-37l258-259z m460-305l0 603c0 13 11 24 24 24l24-1c13 0 23-11 23-24l0-603c0-13-10-24-23-23l-24 0c-13 0-24 11-24 24z" horiz-adv-x="1000" />

<glyph glyph-name="info" unicode="&#xe855;" d="M626 200c0-24-115-131-214-131-35 0-60 15-60 47 0 42 34 112 40 126l69 151c7 16-2 23-10 23-36 0-83-74-101-74-7 0-13 6-13 11 0 15 44 51 56 63 40 32 91 57 148 57 42 0 87-22 52-105l-71-168c-6-12-17-34-17-48 0-5 4-12 12-12 30 0 84 73 98 73 4 0 11-5 11-13z m-31 431c-43 0-81-31-81-69 0-35 27-58 67-58 44 0 82 29 82 68 0 36-29 59-68 59z m350-280c0 244-198 442-442 442-244 0-442-198-442-442 0-244 198-442 442-442 244 0 442 198 442 442z m-42 0c0-221-179-400-400-400-221 0-400 179-400 400 0 221 179 400 400 400 221 0 400-179 400-400z" horiz-adv-x="1000" />

<glyph glyph-name="ol-delete-trash" unicode="&#xe856;" d="M661 706a97 97 0 0 1-97 97h-129a97 97 0 0 1-97-97h-129a97 97 0 0 1-31-189l58-533a97 97 0 0 1 96-87h336a97 97 0 0 1 97 87l57 533a97 97 0 0 1-31 189z m-226 64h129a65 65 0 0 0 65-64h-259a65 65 0 0 0 65 64z m297-782a65 65 0 0 0-65-58h-335a65 65 0 0 0-65 58l-56 524h578z m123 621a65 65 0 0 0-64-65h-582a65 65 0 1 0 0 129h582a65 65 0 0 0 64-64z m-226-194h32v-388h-32z m32-1v-386h-32v386h32m0 1h-32v-388h32v388z m-177 0h32v-388h-32z m31-1v-386h-31v386h31m1 1h-32v-388h32v388z m-178 0h32v-388h-32z m32-1v-386h-31v386h31m0 1h-32v-388h32v388z" horiz-adv-x="1000" />

<glyph glyph-name="world-price-guide" unicode="&#xe858;" d="M737 322v-26c20-1 38-5 52-10 15-5 27-13 38-23 9-8 16-16 20-25 5-8 7-16 7-23 0-8-3-14-10-20-7-6-16-9-26-9-18 0-30 9-36 25-6 20-21 33-45 39v-97c23-5 42-10 56-15 14-4 27-10 38-19 12-8 21-18 27-30 7-12 10-25 10-39 0-18-5-35-16-50s-25-28-45-38c-20-10-43-16-70-18v-58c0-9-2-16-4-20-2-4-7-6-14-6-7 0-12 1-15 5-2 3-4 9-4 16v63c-22 2-42 6-58 13-17 6-31 14-42 24-11 10-20 20-25 30-5 11-8 21-8 31 0 8 4 15 11 21 7 6 16 9 27 9 8 0 15-2 21-5 6-4 10-8 13-14 5-13 9-23 13-29 4-7 10-13 17-19 8-6 18-10 31-13v109c-25 6-47 12-64 19-17 7-31 17-42 30-10 13-16 30-16 51 0 26 11 48 32 66 20 17 51 27 90 29v25c0 13 6 20 18 20 12 0 19-7 19-19z m-37-160v89c-16-4-28-9-37-15-9-7-14-17-14-29 0-13 4-22 13-28 8-7 21-12 38-17z m37-70v-102c19 3 34 9 44 19 11 9 16 20 16 33 0 13-5 24-15 31-11 8-26 14-45 19z m-191-96c-5 10-8 19-10 28-9-1-17-2-26-3v153h38c-2 9-3 17-3 27 0 3 0 6 0 9h-35v158h157c0-14-1-29-2-43 0 0 1 1 2 1 2 29 22 48 51 48 10 0 18-2 25-6h112c-2-26-6-51-12-75 2-2 5-4 7-6 9-8 16-17 22-26 13 39 20 82 20 125 0 222-180 403-400 403-221 0-401-181-401-403s180-402 401-402c19 0 39 2 58 4-2 3-3 6-4 8z m309 409h-152c-2 54-10 108-23 158h130c26-47 42-101 45-158z m-68 194h-118c-17 49-39 94-67 136 75-25 140-73 185-136z m-277 153c13-1 26-2 39-4 35-44 62-95 82-149h-121v153z m0-189h133c14-50 23-103 24-158h-157v158z m-140 168c-27-41-48-85-64-132h-110c43 60 103 107 174 132z m-197-168h122c-14-50-22-104-24-158h-143c3 57 19 111 45 158z m-45-195h143c2-55 10-108 24-158h-122c-26 47-42 101-45 158z m68-194h109c17-47 38-92 65-132-71 25-132 72-174 132z m277-153c-17 1-33 3-49 6-34 44-61 93-81 147h130v-153z m0 189h-141c-15 50-23 103-25 158h166v-158z m0 195h-166c2 55 10 108 25 158h141v-158z m0 194h-130c20 54 47 103 81 147 16 3 32 5 49 6v-153z" horiz-adv-x="1000" />

<glyph glyph-name="history" unicode="&#xe859;" d="M856 101a435 435 0 0 0-356-185l0 0a434 434 0 0 0-386 632 29 29 0 1 0 51-26 377 377 0 1 1 126 141l39-10c16-2 27-15 25-29s-18-22-34-20l1 1a31 31 0 0 0-9 0l-82 23c-15 4-23 17-20 30a29 29 0 0 0 0 5 29 29 0 0 0 0 10l11 85a30 30 0 0 0 34 26 30 30 0 0 0 27-33l-4-27a434 434 0 0 0 577-623z m-183 255h-151v295c0 17-9 30-19 30s-18-13-18-30v-295h-6c-17 0-30-8-30-18s13-18 30-18h194c16 0 30 8 30 18s-14 18-30 18z" horiz-adv-x="1000" />

<glyph glyph-name="gallery" unicode="&#xe85b;" d="M946 766h-771a37 37 0 0 1-37-37v-30h-13a37 37 0 0 1-36-37v-40h-35a37 37 0 0 1-36-37v-614a37 37 0 0 1 36-37h756a37 37 0 0 1 37 37v40h34a37 37 0 0 1 37 37v30h28a37 37 0 0 1 36 37v614a37 37 0 0 1-36 37z m-141-186v-338l-90 90c-1 0-1 1-1 1 0 0 0 0-1 0 0 0 0 0 0 0 0 1 0 1-1 1 0 0 0 1 0 1-1 0-1 0-1 0-1 1-1 1-1 1-1 0-1 0-1 0-1 0-1 1-1 1 0 0-1 0-1 0 0 0-1 0-1 0 0 1-1 1-1 1 0 0-1 0-1 0 0 0-1 0-1 0 0 0-1 0-1 0 0 0-1 0-1 0s-1 0-1 0c0 0-1 0-1 0 0 0-1 0-1 0 0 0-1 0-1 0 0 0-1 0-1 0 0 0-1 0-1 0 0 0-1 0-1 0 0 0-1-1-1-1 0 0-1 0-1 0 0 0-1 0-1 0 0-1-1-1-1-1 0 0 0 0-1 0 0 0 0-1-1-1 0 0 0 0 0 0-1-1-1-1-1-1-1 0-1 0-1-1 0 0-1 0-1 0 0-1 0-1 0-1 0 0-1 0-1 0 0 0 0-1 0-1l-96-110-268 238c0 0 0 0 0 0-1 1-1 1-1 1-1 0-1 1-1 1 0 0-1 0-1 0 0 1-1 1-1 1 0 0-1 0-1 0 0 1-1 1-1 1 0 0-1 0-1 0 0 0-1 0-1 0 0 1 0 1-1 1 0 0-1 0-1 0 0 0 0 0-1 0 0 0 0 0-1 0 0 0 0 0-1 0 0 0 0 0-1 0 0 0 0 0-1 0 0 0 0 0-1 0 0 0 0 0-1 0 0 0 0 0-1 0 0 0 0 0-1 0 0 0 0 0-1-1 0 0 0 0-1 0 0 0 0 0-1 0 0 0 0 0-1-1 0 0 0 0-1 0 0 0 0 0 0-1-1 0-1 0-1 0-1 0-1-1-1-1-1 0-1 0-1 0 0-1-1-1-1-1l-232-205v326z m-745-604v222l246 217 270-239c0 0 0 0 0 0 0 0 0 0 0 0 0-1 0-1 0-1 1 0 1 0 1 0 0-1 1-1 1-1 0 0 0 0 1-1 0 0 0 0 1 0 0 0 0 0 0 0 1-1 1-1 1-1 1 0 1 0 1 0 0 0 1 0 1 0 0-1 1-1 1-1 0 0 1 0 1 0 0 0 1 0 1 0 0 0 1 0 1 0 0 0 0 0 1 0q1 0 1 0a21 21 0 0 1 3 0c0 0 0 0 0 0 1 0 1 0 2 0 0 0 0 0 1 0 0 0 0 0 1 1 0 0 0 0 1 0 0 0 1 0 1 0 0 0 1 1 1 1 0 0 1 0 1 0 0 0 1 1 1 1 0 0 0 0 1 1 0 0 0 0 1 0 0 0 0 1 1 1 0 0 0 1 0 1 1 0 1 0 1 1 0 0 0 0 0 0 0 0 0 0 0 0l96 109 104-104v-207z m816 77h-29v532a37 37 0 0 1-37 37h-679v35h745z m64 67h-22v542a37 37 0 0 1-37 37h-701v25h760z m-366 239a68 68 0 1 1-68 69 68 68 0 0 1 68-69z m0 95a26 26 0 1 0-26-26 26 26 0 0 0 26 26z" horiz-adv-x="1000" />

<glyph glyph-name="external-link" unicode="&#xe85c;" d="M859 243h31a22 22 0 0 0 22-22v-262a22 22 0 0 0-22-22h-781a22 22 0 0 0-22 22v782a22 22 0 0 0 22 22h263c12 0 24-10 24-22v-29c0-14-13-24-26-24h-208v-675h675v208a22 22 0 0 0 22 22z m55 80a25 25 0 0 0-25-25l-25 0a25 25 0 0 0-26 26l1 305-311-304a26 26 0 0 0-37 0l-18 18a25 25 0 0 0 0 35l315 308-310 1a25 25 0 0 0-25 25l-1 25a25 25 0 0 0 26 25l410 0a25 25 0 0 0 25-25z" horiz-adv-x="1000" />

<glyph glyph-name="fee-yuan" unicode="&#xe85e;" d="M500-92c-244 0-442 198-442 442 0 244 198 442 442 442 244 0 442-198 442-442 0-244-198-442-442-442z m0 842c-221 0-400-179-400-400 0-221 179-400 400-400 221 0 400 179 400 400 0 221-179 400-400 400z m-156-148l-44-28 157-248h-109v-53h130v-215h53v215h118v53h-98l149 249-45 27-151-253z" horiz-adv-x="1000" />

<glyph glyph-name="download" unicode="&#xe85f;" d="M750 407l-233-232a24 24 0 0 0-34 0l-233 232a24 24 0 0 0 0 34l23 23a24 24 0 0 0 34 0l153-153v422a24 24 0 0 0 24 24h32a24 24 0 0 0 24-24v-422l153 153a24 24 0 0 0 34 0l23-23a24 24 0 0 0 0-34z m91-204v-179h-682v179a24 24 0 0 1-24 24h-32a24 24 0 0 1-24-24v-236a24 24 0 0 1 24-24h794a24 24 0 0 1 24 24v236a24 24 0 0 1-24 24h-32a24 24 0 0 1-24-24z" horiz-adv-x="1000" />

<glyph glyph-name="private" unicode="&#xe860;" d="M783 388h-19v113c0 145-119 264-264 264-145 0-264-119-264-264v-113h-19a57 57 0 0 1-56-57v-339a57 57 0 0 1 56-57h566a57 57 0 0 1 56 57v339a57 57 0 0 1-56 57z m-132 0h-302v113a151 151 0 0 0 302 0z" horiz-adv-x="1000" />

<glyph glyph-name="submit-cards" unicode="&#xe861;" d="M869 480a92 92 0 0 0 7-7l0 0 0 0a93 93 0 0 0-10-3l-615-145a41 41 0 0 0-11-1c-2 0-7 6-9 10l-123 226a100 100 0 0 0-5 9l0 0 1 1a100 100 0 0 0 10 2l534 105c4 1 8 2 9 2h3a70 70 0 0 0 12-9z m84-27c4-3 3-6-2-7l-727-176a11 11 0 0 0-12 5l-167 310a6 6 0 0 0 4 9l619 121a17 17 0 0 0 14-4z m-72 18l1 3a78 78 0 0 1-9 10l-197 190a62 62 0 0 1-11 9c-3 1-14 1-18 0l-535-105a79 79 0 0 1-13-4l-1-2-1-3a79 79 0 0 1 5-12l124-226a62 62 0 0 1 10-13s1-1 6-1h1c1 0 5 1 9 2l616 145a78 78 0 0 1 13 5z m54-56a16 16 0 0 1-14 3l-689-166a43 43 0 0 0-13-1c-3 0-8 7-10 11l-147 271c-2 4-6 7-8 6a23 23 0 0 1-8-3c-2-1 0-9 2-13l161-297a43 43 0 0 1 7-10c2-2 11-1 16 0l712 172a34 34 0 0 1 10 4c2 1-3 8-6 11z m0-58a16 16 0 0 1-14 4l-689-167a43 43 0 0 0-13-1c-3 0-8 8-10 12l-147 270c-2 4-6 7-8 7a23 23 0 0 1-8-4c-2-1 0-9 2-13l161-296a43 43 0 0 1 7-10c2-2 11-2 16-1l712 172a34 34 0 0 1 10 4c2 2-3 8-6 11z m0-57a16 16 0 0 1-14 3l-689-166a43 43 0 0 0-13-2c-3 1-8 8-10 12l-147 271c-2 4-6 6-8 6a23 23 0 0 1-8-3c-2-2 0-10 2-13l161-297a43 43 0 0 1 7-10c2-2 11-1 16 0l712 172a34 34 0 0 1 10 4c2 1-3 7-6 10z m0-58a16 16 0 0 1-14 4l-689-167a43 43 0 0 0-13-1c-3 0-8 8-10 11l-147 271c-2 4-6 7-8 6a23 23 0 0 1-8-3c-2-1 0-9 2-13l161-297a43 43 0 0 1 7-10c2-1 11-1 16 0l712 172a34 34 0 0 1 10 4c2 1-3 8-6 11z m0-58a16 16 0 0 1-14 4l-689-166a43 43 0 0 0-13-2c-3 1-8 8-10 12l-147 271c-2 4-6 6-8 6a23 23 0 0 1-8-4c-2-1 0-9 2-13l161-296a43 43 0 0 1 7-10c2-2 11-2 16-1l712 173a34 34 0 0 1 10 4c2 1-3 7-6 10z" horiz-adv-x="1000" />

<glyph glyph-name="store" unicode="&#xe862;" d="M905 419a71 71 0 0 0-141 0v47h141z m-238-70a71 71 0 0 0-71 70v47h142v-47a71 71 0 0 0-71-70m-167 0a71 71 0 0 0-71 70v47h142v-47a71 71 0 0 0-71-70m-167 0a71 71 0 0 0-71 70v47h142v-47a71 71 0 0 0-71-70m-167 0a71 71 0 0 0-71 70v47h142v-47a71 71 0 0 0-71-70m9 266h112l-47-124h-136z m420-124l-24 124h116l46-124z m-139 124h89l24-124h-137z m-26 0l-24-124h-138l46 124z m466-124h-135l-47 124h110z m-651-492h141v248h-141z m114 97a13 13 0 0 0-26 0v34a13 13 0 1 0 26 0z m501 231c-1-1-1-1-1-1-1 0-2 0-2 0-1 0-1 0-2-1-1 0-2 0-2 0-1 0-2 0-2 0-1-1-2-1-4-1 0 0-1 0-2 0l-2 0q-1-1-3-1c0 0-1 0-1 0-2 0-3 0-5 0h0q-2 0-4 0c0 0-1 0-1 0-1 0-3 0-4 1 0 0-1 0-2 0-1 0-1 0-2 0-1 0-2 0-3 0 0 0 0 0 0 1a97 97 0 0 0-62 38c0 0 0 1-1 1q0 1-1 2c-1 1-1 2-2 3 0 0 0 1-1 1 0 1 0 1 0 1 0 0-1 0-1-1 0 0 0-1-1-1 0-1-1-2-2-3l-1-2c0 0 0-1-1-1a96 96 0 0 0-61-38 2 2 0 0 1-1-1c-1 0-2 0-2 0-1 0-2 0-2 0-1 0-2 0-3 0-1-1-2-1-3-1-1 0-1 0-2 0q-2 0-4 0h0c-1 0-3 0-4 0-1 0-1 0-1 0-2 0-3 0-4 1-1 0-1 0-2 0-1 0-2 0-2 0-1 0-2 0-3 0 0 0 0 0 0 1a96 96 0 0 0-62 38c0 0 0 1-1 1 0 1-1 1-1 2-1 1-1 2-2 3 0 0 0 1-1 1 0 1 0 1 0 1-1 0-1 0-1-1 0 0-1-1-1-1-1-1-1-2-2-3 0-1-1-1-1-2q0 0-1-1c0-1-1-1-1-2l0 0a96 96 0 0 0-61-36 2 2 0 0 1 0-1c-1 0-2 0-3 0 0 0-1 0-2 0 0 0-1 0-2 0-1-1-2-1-3-1-1 0-1 0-2 0q-2 0-4 0h0q-2 0-4 0c-1 0-1 0-2 0-1 0-2 0-3 1-1 0-2 0-2 0-1 0-2 0-2 0-1 0-2 0-3 0 0 0 0 0 0 1a96 96 0 0 0-62 38c0 0-1 1-1 1 0 1-1 1-1 2-1 1-1 2-2 3 0 0-1 1-1 1 0 1 0 1-1 1 0 0 0 0 0-1 0 0-1-1-1-1-1-1-1-2-2-3 0-1-1-1-1-2 0 0-1-1-1-1-1-1-1-1-2-2l0 0a97 97 0 0 0-60-36 2 2 0 0 1 0-1c-1 0-2 0-3 0 0 0-1 0-2 0q-1 0-2 0c-1-1-2-1-3-1-1 0-1 0-2 0-1 0-3 0-4 0h0q-2 0-4 0c-1 0-1 0-2 0-1 0-2 0-3 1-1 0-2 0-2 0-1 0-2 0-2 0-1 0-2 0-3 0 0 0 0 0 0 1a97 97 0 0 0-62 38c0 0-1 1-1 1 0 1-1 1-1 2-1 1-2 2-2 3 0 0-1 1-1 1 0 1 0 1-1 1 0 0 0 0 0-1-1 0-1-1-1-1-1-1-1-2-2-3 0-1-1-1-1-2-1 0-1-1-1-1-1-1-1-1-2-2l0 0a96 96 0 0 0-60-36 2 2 0 0 1 0-1c-1 0-2 0-3 0 0 0-1 0-2 0-1 0-1 0-2 0-1-1-2-1-4-1 0 0 0 0-1 0q-2 0-4 0h0c-2 0-3 0-5 0l-1 0c-1 0-2 0-3 1 0 0-1 0-2 0-1 0-2 0-3 0q-1 0-3 1c0 0-1 0-1 0-1 0-2 0-3 0 0 0-1 1-1 1-2 0-3 0-5 1 0 0-1 0-1 0v-328h81v261a13 13 0 0 0 13 13h167a13 13 0 0 0 13-13v-261h451v328c-1 0-2 0-3 0z m-68-243a13 13 0 0 0-13-13h-279a13 13 0 0 0-13 13v176a13 13 0 0 0 13 13h279a13 13 0 0 0 13-13z m-612 558h642v59h-642z" horiz-adv-x="1000" />

<glyph glyph-name="no-image-card" unicode="&#xe863;" d="M713-83h-426a45 45 0 0 0-45 45v776a45 45 0 0 0 45 45h426a45 45 0 0 0 45-45v-776a45 45 0 0 0-45-45z m-426 854a33 33 0 0 1-33-33v-776a33 33 0 0 1 33-33h426a33 33 0 0 1 33 33v776a33 33 0 0 1-33 33z m421-12h-416a29 29 0 0 1-28-28v-762a29 29 0 0 1 28-28h416a29 29 0 0 1 28 28v762a29 29 0 0 1-28 28z m-8-773h-400v540h400z m0 564h-400v172h400z" horiz-adv-x="1000" />

<glyph glyph-name="twitter" unicode="&#xe864;" d="M500 789c-242 0-439-197-439-439 0-242 197-439 439-439s439 197 439 439c0 242-197 439-439 439z m251-342c0-5 0-10 0-15 0-154-117-331-331-331-65 0-126 19-178 52 9-1 18-1 28-1 54 0 104 18 144 49-51 1-94 35-108 81 7-1 14-2 21-2 11 0 21 1 31 4-53 11-93 58-93 114 0 0 0 1 0 1 16-8 33-14 52-14-31 21-51 56-51 97 0 21 6 41 16 58 57-70 142-117 239-121-2 8-3 17-3 26 0 64 52 116 116 116 34 0 64-14 85-36 27 5 51 14 74 28-9-27-27-50-51-65 23 3 46 10 67 19-16-24-36-44-58-60z" horiz-adv-x="1000" />

<glyph glyph-name="linkedin" unicode="&#xe865;" d="M529 397c0 1 0 1 1 1v-1z m413-47c0-243-198-441-442-441-244 0-442 198-442 441 0 243 198 441 442 441 244 0 442-198 442-441z m-556 88h-92v-278h92z m6 86c-1 27-20 48-52 48-31 0-52-21-52-48 0-27 20-48 51-48h1c32 0 52 21 52 48z m327-205c0 86-45 125-106 125-49 0-71-27-83-46v40h-93c1-26 0-278 0-278h93v155c0 8 0 17 3 23 6 16 21 33 47 33 33 0 47-25 47-63v-148h92z" horiz-adv-x="1000" />

<glyph glyph-name="top-collector" unicode="&#xe866;" d="M290 232a7 7 0 0 0-1-7l-51-52 12-73a7 7 0 0 0-3-6 6 6 0 0 0-6-1l-63 35-63-35a6 6 0 0 0-6 1 7 7 0 0 0-3 6l12 73-51 52a7 7 0 0 0-1 7 6 6 0 0 0 5 5l70 10 31 67a6 6 0 0 0 12 0l31-67 70-10a6 6 0 0 0 5-5z m645 0a6 6 0 0 1-6 5l-70 10-31 67a6 6 0 0 1-11 0l-32-67-70-10a6 6 0 0 1-5-5 7 7 0 0 1 1-7l51-52-12-73a7 7 0 0 1 3-6 6 6 0 0 1 6-1l63 35 63-35a6 6 0 0 1 7 1 7 7 0 0 1 2 6l-12 73 51 52a7 7 0 0 1 2 7z m-162 180a15 15 0 0 1-12 10l-171 25-76 152a15 15 0 0 1-27 0l-77-152-170-24a15 15 0 0 1-13-11 15 15 0 0 1 4-15l124-119-29-168a15 15 0 0 1 6-15 15 15 0 0 1 16-1l152 79 153-79a15 15 0 0 1 16 1 15 15 0 0 1 6 15l-29 168 123 119a15 15 0 0 1 4 15z" horiz-adv-x="1000" />

<glyph glyph-name="ol-edit" unicode="&#xe867;" d="M44-89c-1-6 0-11 3-14a12 12 0 0 1 9-4 5 5 0 0 1 4 2l276 96c1 2 4 2 5 3h0l611 611a13 13 0 0 1 0 19l-178 179a13 13 0 0 1-19 0l-611-611h0a7 7 0 0 1-3-6z m34 17l78 221 51-88a11 11 0 0 1 5-5l88-51z m251 93l-89 51 469 469 70-70z m-107 70l-51 88 450 450 69-69z m542 683l160-159-126-127-160 160z m0 32a12 12 0 0 0 9-4l179-179a12 12 0 0 0 0-17l-612-611a6 6 0 0 0-2-1 8 8 0 0 1-3-2l-275-96 0-1 0 0a4 4 0 0 0-4-1 11 11 0 0 0-8 4c-3 3-4 8-3 12l97 276 0 0v0a6 6 0 0 0 2 5l611 611a12 12 0 0 0 9 4m34-319l0 1 127 126 0 1 0 0-160 160-1 1 0-1-127-126 0-1 0 0 160-160 1-1m-577-398l1 1 469 469 1 1-1 0-70 70 0 1-1-1-450-450-1 0 1-1 51-89 0-1m108-69l1 0 450 450 0 1 0 1-70 69-1 1-1-1-468-468-1-1 1-1 89-51 0 0m-253-93l2 0 222 77 2 1-2 1-87 51a10 10 0 0 0-5 5l-51 87-1 2-1-2-78-220-1-2m688 880a13 13 0 0 1-9-4l-611-611a7 7 0 0 1-3-6l-97-275c-1-6 0-11 3-14a12 12 0 0 1 9-4 5 5 0 0 1 4 2l276 96c1 2 4 2 5 3l611 611a13 13 0 0 1 0 19l-178 179a13 13 0 0 1-10 4z m34-319l-160 160 126 126 160-159-126-127z m-576-397l-51 88 450 450 69-69-468-469z m107-70l-89 51 469 469 70-70-450-450z m-251-93l78 221 51-88a11 11 0 0 1 5-5l88-51-222-77z" horiz-adv-x="1000" />

<glyph glyph-name="ol-expand-collapse" unicode="&#xe868;" d="M266-52a21 21 0 0 0-14 37l449 365-449 365a21 21 0 0 0 27 33l469-382a21 21 0 0 0 0-32l-469-382a21 21 0 0 0-13-4z" horiz-adv-x="1000" />

<glyph glyph-name="coin-explorer" unicode="&#xe869;" d="M497 638c-192 0-347-155-347-347s155-346 347-346c191 0 346 155 346 346s-155 347-346 347z m0-606c-144 0-260 116-260 259 0 144 116 260 260 260s260-116 260-260c0-143-117-259-260-259z m265 723c-48 0-87-39-87-88 0-48 39-87 87-87 49 0 88 39 88 87 0 49-39 88-88 88z m0-133c-25 0-45 20-45 45s20 46 45 46c25 0 46-20 46-46s-21-45-46-45z m-222-147c-11 3-18 14-16 25 3 12 14 19 26 16 11-3 18-14 15-25-2-11-14-18-25-16z m-96-409c-11 3-18 14-15 25 2 11 14 18 25 16 11-3 18-14 16-25-3-12-14-19-26-16z m253 162c-11 3-18 14-16 25s14 18 25 16c12-3 19-14 16-25s-14-19-25-16z m-408 95c-11 3-18 14-15 25s14 19 25 16c11-3 18-14 15-25-2-11-13-18-25-16z m197 18c-27-6-45-33-39-60 6-28 33-45 60-40s45 33 39 60c-5 28-32 45-60 40z m17-81c-17-4-34 7-38 24-3 18 8 35 25 38 17 4 35-7 38-24 4-18-7-35-25-38z m124 231l-70-170c-11 21-33 36-57 37l127 133z m-134-267l-127-133 71 170c11-21 32-36 56-37z m203-64l-169 71c21 11 35 33 37 57l132-128z m-266 134l-133 128 170-71c-22-11-36-33-37-57z" horiz-adv-x="1000" />

<glyph glyph-name="ol-imaging" unicode="&#xe86a;" d="M884-7h-768c-39 0-71 33-71 73v454c0 41 32 73 71 73h39v13a44 44 0 0 0 43 44h83a44 44 0 0 0 43-44v-13h96l47 79a70 70 0 0 0 60 35l192 0a71 71 0 0 0 63-38l45-76h57c39 0 71-32 71-73v-454c0-40-32-73-71-73z m-768 568c-21 0-39-18-39-41v-454c0-22 18-41 39-41h768c21 0 39 19 39 41v454c0 23-18 41-39 41h-66a16 16 0 0 0-14 8l-50 84q0 0-1 1a39 39 0 0 1-34 21l-192 0a38 38 0 0 1-32-19l-53-87a16 16 0 0 0-13-8h-121a16 16 0 0 0-16 16v29a12 12 0 0 1-11 12h-83a12 12 0 0 1-11-12v-29a16 16 0 0 0-16-16z m507-483c-122 0-221 103-221 229 0 127 99 230 221 230 123 0 222-103 222-230 0-126-99-229-222-229z m0 426c-104 0-189-88-189-197 0-108 85-196 189-196 105 0 190 88 190 196 0 109-85 197-190 197z m0-340c-77 0-139 64-139 143 0 80 62 144 139 144 77 0 140-64 140-144 0-79-63-143-140-143z m0 255c-59 0-107-50-107-112 0-61 48-111 107-111 60 0 108 50 108 111 0 62-48 112-108 112z m-315 0h-137a45 45 0 0 0 0 89h137a44 44 0 0 0 44-44c0-25-20-45-44-45z m-137 57a12 12 0 0 1 0-25h137a12 12 0 0 1 11 13 12 12 0 0 1-11 12z" horiz-adv-x="1000" />

<glyph glyph-name="ol-mailin-dropoff" unicode="&#xe86b;" d="M772 25a20 20 0 0 0-10 3l-55 46 19 24 43-36 75 97 24-19-84-109a18 18 0 0 0-11-6z m-194-2l-78-37v389l144 67v-108c0-5 1-10 6-14l40-23a15 15 0 0 1 7-2 16 16 0 0 1 13 6l43 52c2 3 4 7 4 10v130l124 60v-277a226 226 0 0 0 30-19v320c0 1 2 3 2 4v1c0 1 0 2-2 2a1 1 0 0 1-1 1c0 1-1 1-2 2l-1 1-1 1a1 1 0 0 0-1 1h-1l-417 194a15 15 0 0 1-13 0l-159-73h-1l-82-39h-1l-175-81h-1a1 1 0 0 1-1-1l-1-1-1-1-3-2-1-1a4 4 0 0 0-1-2l-1-1v-428c0-7 5-12 10-15l418-193h2c1 0 3-1 4-1a6 6 0 0 1 4 1h2l102 48c-3 9-7 19-10 29z m148 345l-30-38-21 12v113l51 24z m-246 384l381-175-123-57-381 175z m-160-73l381-175-46-22-381 175z m149-693l-392 178v389l392-178z m11 416l-381 175 139 64 381-175z m302-143a172 172 0 1 1 172-172 172 172 0 0 1-172 172z m0-314a141 141 0 0 0-141 142c0 77 63 141 141 141s141-64 141-141a141 141 0 0 0-141-142z m-586 199v67l-28 13v-67z m33-15v67l-21 10v-67z m-76 35v67l-15 7v-67z m-28 13v67l-21 9v-66z" horiz-adv-x="1000" />

<glyph glyph-name="ol-mechanical-error" unicode="&#xe86c;" d="M778 778q1 0 3 0a169 169 0 0 0 54-12l-81-49c-16-10-25-27-23-45 4-54 36-99 84-123a47 47 0 0 1 21-6 44 44 0 0 1 25 8l62 37a161 161 0 0 0-35-62 151 151 0 0 0-109-48c-2 0-8 0-28 6a131 131 0 0 1-28 4 106 106 0 0 1-76-32l-92-96-44 44 96 94c24 24 37 60 31 93-9 57 6 106 43 143 28 28 63 44 97 44m-687-9l104-52a38 38 0 0 0 21-33v-11a48 48 0 0 1 13-33l386-386-21-20-384 386a48 48 0 0 1-34 14h-11a38 38 0 0 0-32 20l-53 104 11 11m832-181h0m-477-249l44-44-345-357a54 54 0 0 0-38-16 29 29 0 0 0-23 9c-6 7-10 15-10 23a56 56 0 0 0 16 39l356 346m219-82a7 7 0 0 0 5-2l238-215c12-12 19-29 19-48a68 68 0 0 0-21-47l-4-5a68 68 0 0 0-48-19c-18 0-35 8-48 20v-1c-5 6-12 14-24 26l-193 208c0 6 0 11 2 13l69 68a7 7 0 0 0 5 2m113 547c-41 0-82-18-115-51a180 180 0 0 1-46-75c-9-28-10-58-5-91q0 0 0 0c4-25-5-52-24-70l-95-94a27 27 0 0 1-4-5l-241 240a22 22 0 0 0-6 15v11a64 64 0 0 1-34 56q0 1-1 1l-104 52a27 27 0 0 1-31-5l-10-11a27 27 0 0 1-5-30l52-105q0 0 0 0a64 64 0 0 1 56-35h11a22 22 0 0 0 15-5l239-241a27 27 0 0 1-3-3l-355-346c-1 0-1 0-1 0a83 83 0 0 1-24-58c0-15 6-29 18-41a56 56 0 0 1 42-18 81 81 0 0 1 57 24q0 1 0 1l345 356a27 27 0 0 1 3 3l64-64a27 27 0 0 1 3-3l-5-5c-12-10-12-25-12-33a27 27 0 0 1 7-18l193-208q1 0 1-1c12-12 18-19 23-24a27 27 0 0 1 8-6 95 95 0 0 1 60-23 94 94 0 0 1 66 27l5 5a95 95 0 0 1 28 66c0 26-9 50-26 67q0 0-1 1l-238 215a33 33 0 0 1-47-1l-4-5a27 27 0 0 1-4 4l-64 65a27 27 0 0 1 5 4l92 96 0 0a79 79 0 0 0 57 23 105 105 0 0 0 21-3c21-5 29-6 35-6a178 178 0 0 1 128 56c1 0 1 0 1 0a187 187 0 0 1 40 72 27 27 0 0 1-25 35l0 0h0l0 0c0 0-1 0-1 0a27 27 0 0 1-13-4l-62-37q0-1-1-1a17 17 0 0 0-10-3 20 20 0 0 0-9 2q0 0 0 1c-40 20-66 58-70 101q0 0 0 0c-1 8 3 16 11 20l81 49a27 27 0 0 1-4 48 197 197 0 0 1-63 13q0 0 0 0-2 0-4 0z" horiz-adv-x="1000" />

<glyph glyph-name="ol-onsite-grading" unicode="&#xe86d;" d="M702 731h-22l-40 66a15 15 0 0 1-12 7h-256a15 15 0 0 1-12-7l-40-66h-22a15 15 0 0 1-15-15v-202h-189a15 15 0 0 1-15-15v-574h-32v-29h907v29h-33v574a15 15 0 0 1-15 15h-189v202a15 15 0 0 1-15 15z m-321 44h239l26-44h-292z m-273-290h175v-560h-175z m205 217h374v-777h-46v206a15 15 0 0 1-15 14h-252a15 15 0 0 1-14-14v-206h-47z m76-586h96v-191h-96z m126-191v191h96v-191z m377 560v-560h-175v560z m-536 187h47v-29h-47z m79 0h46v-29h-46z m78 0h46v-29h-46z m78 0h47v-29h-47z m-235-89h47v-29h-47z m79 0h46v-29h-46z m78 0h46v-29h-46z m78 0h47v-29h-47z m-235-89h47v-30h-47z m79 0h46v-30h-46z m78 0h46v-30h-46z m78 0h47v-30h-47z m-235-90h47v-29h-47z m79 0h46v-29h-46z m78 0h46v-29h-46z m78 0h47v-29h-47z m-235-89h47v-29h-47z m79 0h46v-29h-46z m78 0h46v-29h-46z m78 0h47v-29h-47z m-235-89h47v-30h-47z m79 0h46v-30h-46z m78 0h46v-30h-46z m78 0h47v-30h-47z m-458 212h47v-29h-47z m79 0h46v-29h-46z m-79-75h47v-29h-47z m79 0h46v-29h-46z m-79-75h47v-29h-47z m79 0h46v-29h-46z m-79-75h47v-29h-47z m79 0h46v-29h-46z m-79-75h47v-29h-47z m79 0h46v-29h-46z m-79-76h47v-29h-47z m79 0h46v-29h-46z m530 376h46v-29h-46z m78 0h47v-29h-47z m-78-75h46v-29h-46z m78 0h47v-29h-47z m-78-75h46v-29h-46z m78 0h47v-29h-47z m-78-75h46v-29h-46z m78 0h47v-29h-47z m-78-75h46v-29h-46z m78 0h47v-29h-47z m-78-76h46v-29h-46z m78 0h47v-29h-47z" horiz-adv-x="1000" />

<glyph glyph-name="ol-packing-slip" unicode="&#xe86e;" d="M830 574c0 0 0 0 0 1a13 13 0 0 1-3 4q0 1-1 1l-220 220h0c0 0 0 0 0 0a14 14 0 0 1-10 4h-413a14 14 0 0 1-13-14v-880a14 14 0 0 1 13-14h634a14 14 0 0 1 13 14v660a14 14 0 0 1 0 4z m-220 10v173l173-173z m-14-27h207v-634h-606v854h386v-207a14 14 0 0 1 2-8 14 14 0 0 1 1-1q1 0 1-1a14 14 0 0 1 9-3z m-349-125h80v-241h-80z m106 0h30v-241h-30z m56 0h47v-241h-47z m74 0h101v-241h-101z m269-241h-38v241h38z m-65 0h-77v241h77z" horiz-adv-x="1000" />

<glyph glyph-name="ol-pedigree" unicode="&#xe86f;" d="M532-21a14 14 0 0 1 14-4l64 16 40-54a14 14 0 0 1 25 4l16 45-15 44-19-54-29 40a14 14 0 0 1-15 5l-48-12 42 122a31 31 0 0 0 5-2 69 69 0 0 0 11-13 63 63 0 0 1 29-24 55 55 0 0 1 31 1l54-152a14 14 0 0 1 25-4l39 54 64-16a14 14 0 0 1 17 18l-42 123h0l-1 1 0 0-9 25a45 45 0 0 1 16 14 63 63 0 0 1 10 35 71 71 0 0 0 2 17 68 68 0 0 0 8 15 64 64 0 0 1 14 35 64 64 0 0 1-14 35 68 68 0 0 0-8 14 71 71 0 0 0-2 17 63 63 0 0 1-10 36 63 63 0 0 1-31 20 70 70 0 0 0-15 7 69 69 0 0 0-12 12 63 63 0 0 1-28 24 63 63 0 0 1-37-2 72 72 0 0 0-17-4 72 72 0 0 0-17 4 63 63 0 0 1-37 2 63 63 0 0 1-29-24 69 69 0 0 0-11-12 69 69 0 0 0-15-7 63 63 0 0 1-32-20 63 63 0 0 1-9-36 71 71 0 0 0-2-17 68 68 0 0 0-8-14 64 64 0 0 1-14-35 64 64 0 0 1 14-35 68 68 0 0 0 8-15 71 71 0 0 0 2-17 63 63 0 0 1 9-35 45 45 0 0 1 16-14l-8-25 0 0-1-1h0l-43-123a14 14 0 0 1 3-14z m315 30l-48 12a14 14 0 0 1-15-5l-29-40-43 121c4 0 7-1 11-2a92 92 0 0 1 24-4 40 40 0 0 1 13 1 63 63 0 0 1 28 24 69 69 0 0 0 12 13 31 31 0 0 0 4 2z m-266 208a88 88 0 0 1-11 21 43 43 0 0 0-10 20 43 43 0 0 0 10 19 88 88 0 0 1 11 21 92 92 0 0 1 3 25 43 43 0 0 0 4 20 43 43 0 0 0 19 10 90 90 0 0 1 22 11 90 90 0 0 1 16 18 43 43 0 0 0 16 14 44 44 0 0 0 20-3 95 95 0 0 1 25-4 95 95 0 0 1 25 4 44 44 0 0 0 20 3 43 43 0 0 0 15-14 90 90 0 0 1 17-18 90 90 0 0 1 22-11 43 43 0 0 0 18-10 43 43 0 0 0 4-20 92 92 0 0 1 4-25 88 88 0 0 1 11-21 43 43 0 0 0 9-19 43 43 0 0 0-9-20 88 88 0 0 1-11-21 92 92 0 0 1-4-24 43 43 0 0 0-4-21 43 43 0 0 0-18-10 69 69 0 0 1-39-28 43 43 0 0 0-15-15 44 44 0 0 0-20 3 95 95 0 0 1-25 5 95 95 0 0 1-25-5 44 44 0 0 0-20-3 43 43 0 0 0-16 15 69 69 0 0 1-38 28 43 43 0 0 0-19 10 43 43 0 0 0-4 21 92 92 0 0 1-3 24z m125-59a99 99 0 1 1-100 100 99 99 0 0 1 100-100z m0 171a71 71 0 1 0-71-71 71 71 0 0 0 71 71z m-390 269a14 14 0 0 1 0-28h369a14 14 0 0 1 0 28z m365-85a14 14 0 0 1-14 14h-334a14 14 0 0 1 0-28h334a14 14 0 0 1 14 14z m-525 107a50 50 0 1 1-50 49 50 50 0 0 1 50-49z m0 71a21 21 0 1 0-21-22 21 21 0 0 0 21 22z m0-518a50 50 0 1 1-50 49 50 50 0 0 1 50-49z m0 71a21 21 0 1 0-21-22 21 21 0 0 0 21 22z m748 425a50 50 0 1 1-49-49 50 50 0 0 1 49 49z m-70 0a21 21 0 1 0 21-21 21 21 0 0 0-21 21z m78 100h-823a43 43 0 0 1-43-43v-568a43 43 0 0 1 43-42h453l6 17a44 44 0 0 0-9 11h-450a14 14 0 0 0-15 14v568a14 14 0 0 0 15 14h823a14 14 0 0 0 14-14v-568a14 14 0 0 0-14-14h-39a46 46 0 0 0-4-5 49 49 0 0 0-5-6l6-17h42a43 43 0 0 1 42 42v568a43 43 0 0 1-42 43z m-689-542c0-1 0-1 0-1 0 0 0-1 0-1a14 14 0 0 1 0-1c0-1 1-1 1-2a14 14 0 0 1 0-1c0 0 0-1 1-1 0-1 0-1 0-1 0-1 1-1 1-1 0-1 1-1 1-2 0 0 0 0 1 0a14 14 0 0 1 1-1c0-1 1-1 1-1a14 14 0 0 1 1-1c1 0 1 0 1 0 1-1 1-1 2-1a14 14 0 0 1 1 0c0 0 1 0 1 0a14 14 0 0 1 1 0l0 0h285c-2 2-3 4-4 6a133 133 0 0 0-11 22h-256a99 99 0 0 1-84 88v236a99 99 0 0 1 84 88h498a99 99 0 0 1 85-88v-163c0 0 0-1 1-1a106 106 0 0 0 27-15v192a14 14 0 0 1-14 14 71 71 0 0 0-71 71 16 16 0 0 0 0 2c0 0 0 1 0 1 0 0 0 1 0 1 0 0 0 0 0 0a14 14 0 0 1 0 2c0 0 0 1-1 1a14 14 0 0 1 0 2c0 0 0 0 0 1-1 0-1 1-1 1 0 0-1 1-1 1 0 1 0 1-1 1 0 1 0 1-1 1 0 0 0 1-1 1 0 0 0 1-1 1 0 0-1 0-1 0 0 1-1 1-1 1-1 0-1 0-2 0a14 14 0 0 1-1 1c0 0 0 0-1 0 0 0 0 0 0 0-1 0-1 0-1 0h-526c0 0 0 0 0 0-1 0-1 0-1 0 0 0-1 0-1 0a14 14 0 0 1-1-1c-1 0-1 0-2 0 0 0 0 0-1-1a14 14 0 0 1-1 0c0 0-1-1-1-1a14 14 0 0 1-1-1c-1 0-1 0-1-1 0 0-1 0-1-1 0 0-1-1-1-1 0 0 0-1 0-1-1-1-1-1-1-1a14 14 0 0 1 0-2c0 0-1-1-1-1a14 14 0 0 1 0-2c0 0 0 0 0 0 0 0 0-1 0-1 0 0 0-1 0-1a16 16 0 0 0 0-2 71 71 0 0 0-71-71 14 14 0 0 1-14-14v-262a14 14 0 0 1 14-15 71 71 0 0 0 71-71 16 16 0 0 0 0-1c0-1 0-1 0-1z" horiz-adv-x="1000" />

<glyph glyph-name="ol-sports-cards" unicode="&#xe871;" d="M917 402c1 7-1 12-6 14l-93 41c-8 3-19-1-25-10s-5-19 2-22l67-30-401-232-323 142 160 92q1 1 1 1l186-81c5-2 11-2 16 2l443 256c10 6 15 16 12 24a11 11 0 0 1-5 7l-356 156c-5 2-11 2-17-2l-442-256c-10-6-15-16-13-24a11 11 0 0 1 6-7l137-60-170-99c-10-5-15-16-12-24a11 11 0 0 1 5-6l356-157c5-2 11-1 16 2l232 134a8 8 0 0 1 1-1l128-56-401-233-323 142 83 48c10 6 15 17 12 24s-12 10-21 5h0l-116-67c-9-6-15-16-12-24a11 11 0 0 1 6-7l356-157c4-1 10-1 16 3l443 256c9 6 14 17 12 24a11 11 0 0 1-6 7l-137 60 170 99a26 26 0 0 1 13 16z m-338 325l323-142-401-233-323 142z" horiz-adv-x="1000" />

<glyph glyph-name="ol-subgrades" unicode="&#xe872;" d="M333 722a17 17 0 0 1-18-18 18 18 0 0 1 18-16 192 192 0 0 0 192-192 17 17 0 0 1 34 0 226 226 0 0 1-226 226z m618-726c-141 141-191 191-215 215-25 24-25 24-67 67l0 0a18 18 0 0 1-24 0l-24-24-54 54a299 299 0 0 1-224 498c-164 0-299-134-299-299s135-299 299-299a298 298 0 0 1 199 75l54-53c-8-8-17-18-26-26l0-1-1 0a18 18 0 0 1 3-22l52-52a17 17 0 1 1 24 24l-40 40 49 49c33-34 37-38 67-67 27-27 76-76 191-191l-49-49-187 187a18 18 0 0 1-24 0 18 18 0 0 1 0-24l199-199a18 18 0 0 1 24 0l73 73a18 18 0 0 1 0 24z m-608 246c-146 0-264 119-264 265 0 146 118 265 264 265s265-119 265-265c0-146-118-265-265-265z" horiz-adv-x="1000" />

<glyph glyph-name="ol-thick-holder" unicode="&#xe873;" d="M554 643l-109 61a15 15 0 0 1-20-5l0-1a15 15 0 0 1 6-20l109-61c25-14 37-33 32-51-5-19-24-35-54-45l-327-110a15 15 0 0 1-10-20 15 15 0 0 1 15-10l0 0a15 15 0 0 1 4 1l327 110a133 133 0 0 1 44 24v-421c-5-18-25-34-53-43l-85-29 0 0a15 15 0 0 1 5-29 15 15 0 0 1 4 0l85 29c39 13 66 37 73 65l1 0v473c7 31-11 62-47 82z m179-62l0 0a13 13 0 0 1-3 3l-1 0-1 1a13 13 0 0 1-5 1l-1 0a14 14 0 0 1-6-1 16 16 0 0 1-5-4l-47-55a15 15 0 1 1 23-20l6 8-1 0 14 17v-115a15 15 0 0 1 15-15h0a15 15 0 0 1 15 15v110l17-22a15 15 0 0 1 12-7c0 0 0 0 1 0a15 15 0 0 1 11 24z m42-421a15 15 0 0 1-22-2l-8-9 1 0-13-15v115a15 15 0 0 1-15 15h0a15 15 0 0 1-15-15v-111l-17 23a15 15 0 1 1-24-18l46-61h1c0 0 0-1 1-1l1-1 1 0a17 17 0 0 1 4-1l1 0 1 0a15 15 0 0 1 5 1h1l1 0a17 17 0 0 1 4 3l47 55a15 15 0 0 1-1 22z m-275 647c-252 0-457-204-457-457 0-252 205-457 457-457 253 0 457 205 457 457 0 253-204 457-457 457z m299-756a422 422 0 1 0 91 134 422 422 0 0 0-91-134z" horiz-adv-x="1000" />

<glyph glyph-name="ol-tier" unicode="&#xe874;" d="M690 244a318 318 0 0 1 89 107 311 311 0 0 1 34 143c0 173-140 314-313 314-173 0-313-141-313-314a311 311 0 0 1 34-143 318 318 0 0 1 90-107l-119-261a14 14 0 0 1 17-19l110 39 57-104a14 14 0 0 1 26 1l97 215 101-215a14 14 0 0 1 12-8c1 0 1 0 1 0a14 14 0 0 1 12 7l57 104 110-39a14 14 0 0 1 18 19z m-193-64l-110-242-45 83 84 168a313 313 0 0 1 71-9z m-99 17l-83-165-83-30 103 225a312 312 0 0 1 63-30z m102 583c157 0 285-128 285-286 0-158-128-286-285-286-157 0-285 128-285 286 0 158 128 286 285 286z m166-552l104-226-84 30-84 165a312 312 0 0 1 64 31z m-137-47a313 313 0 0 1 46 8l84-168-45-84-100 211a5 5 0 0 1 0 1z m-121 279l-4-83a14 14 0 0 1 19-14l78 30 78-30a14 14 0 0 1 13 2 14 14 0 0 1 6 12l-4 83 52 65a14 14 0 0 1 2 13v0a14 14 0 0 1-9 10l-81 21-45 70a15 15 0 0 1-24 0l-46-70-80-21a14 14 0 0 1-7-23z m157 4l3-66-62 23a14 14 0 0 1-10 0l-63-23 4 66a14 14 0 0 1-3 10l-42 52 64 17a14 14 0 0 1 8 6l37 56 36-56a14 14 0 0 1 8-6l65-17-42-52a14 14 0 0 1-3-10z" horiz-adv-x="1000" />

<glyph glyph-name="ol-track" unicode="&#xe875;" d="M500 703a246 246 0 1 0-173-72 243 243 0 0 0 173 72m0 29c-150 0-274-123-274-274s124-274 274-274 274 124 274 274-123 274-274 274z m159-382h-22v225a16 16 0 0 1-16 17h-241a16 16 0 0 1-17-17v-225h-21a13 13 0 1 1 0-26h317a13 13 0 1 1 0 26z m-140 214v-43h-44v43z m-129 1h56v-47c0-11 6-19 17-19h68c10 0 17 8 17 19v47h62v-214h-220z m110-627c-18 0-35 7-46 20-116 120-309 343-309 493a355 355 0 0 0 606 251 353 353 0 0 0 104-251c0-150-194-374-309-494l-1 0a67 67 0 0 0-45-19z m0 842a330 330 0 0 1-329-329c0-63 39-149 116-256 62-85 136-166 187-219l0-1c6-7 15-11 26-11 10 0 21 6 26 12 51 53 125 134 187 219 77 107 116 193 116 256a330 330 0 0 1-329 329z m264-779a547 547 0 0 1-63 12c-13 2-26 3-39 5-7 0-12 2-17-2-6-3-11-12-15-17-5-5 3-8 7-8 104-9 145-24 155-31-6-5-26-15-88-25-56-8-128-13-204-13s-148 5-204 13c-62 10-82 20-88 25 10 7 52 23 158 31 3 1 10 3 9 6a7 7 0 0 1-2 3c-4 5-8 11-13 16-3 3-6 3-11 3q-18-2-36-4c-20-3-40-6-61-10-5-2-10-3-15-4-28-7-59-19-59-42 0-15 12-35 102-50 59-10 137-15 220-15s161 5 220 15c91 15 102 35 102 50 0 23-31 34-58 42z" horiz-adv-x="1000" />

<glyph glyph-name="ol-add" unicode="&#xe876;" d="M811 373h-288v288a21 21 0 1 1-42 0v-288h-288a21 21 0 0 1 0-41h288v-288a21 21 0 1 1 42 0v288h288a21 21 0 1 1 0 41z m-311 434c-252 0-457-204-457-457 0-252 205-457 457-457 253 0 457 205 457 457 0 253-204 457-457 457z m299-756a422 422 0 1 0 91 134 422 422 0 0 0-91-134z" horiz-adv-x="1000" />

<glyph glyph-name="ol-appearance-review" unicode="&#xe877;" d="M500 33a494 494 0 0 0-274 83c-83 55-144 131-178 219a41 41 0 0 0 0 30c34 88 95 164 178 219a494 494 0 0 0 548 0c83-55 144-131 178-219l0 0a41 41 0 0 0 0-30c-34-88-95-164-178-219a494 494 0 0 0-274-83z m0 603a464 464 0 0 1-257-78c-77-51-135-121-167-204a13 13 0 0 1 0-4 13 13 0 0 1 0-4c32-82 90-153 167-204a463 463 0 0 1 515 0c77 51 134 122 166 204a12 12 0 0 1 1 4 13 13 0 0 1-1 4c-32 83-89 153-166 204a464 464 0 0 1-258 78z m0-521c-130 0-235 106-235 235s105 235 235 235c130 0 235-106 235-235s-105-235-235-235z m0 439c-113 0-205-91-205-204 0-113 92-204 205-204 113 0 205 91 205 204 0 113-92 204-205 204z m0-301a98 98 0 1 0 98 97 98 98 0 0 0-98-97z m0 164a67 67 0 1 1 67-67 67 67 0 0 1-67 67z" horiz-adv-x="1000" />

<glyph glyph-name="ol-arrow-left" unicode="&#xe878;" d="M500 773a423 423 0 0 0 165-813 423 423 0 0 0-330 780 420 420 0 0 0 165 33m0 34c-252 0-457-204-457-457 0-252 205-457 457-457 253 0 457 205 457 457 0 253-204 457-457 457z m292-438h-527l266 198a21 21 0 1 1-25 34l-311-232a32 32 0 0 1-8-21 21 21 0 0 1 0-2 21 21 0 0 1 8-19l311-232a21 21 0 1 1 25 34l-266 198h527a21 21 0 0 1 0 42z" horiz-adv-x="1000" />

<glyph glyph-name="ol-arrow-right" unicode="&#xe879;" d="M500 773a423 423 0 0 0 165-813 423 423 0 0 0-330 780 420 420 0 0 0 165 33m0 34c-252 0-457-204-457-457 0-252 205-457 457-457 253 0 457 205 457 457 0 253-204 457-457 457z m313-459a32 32 0 0 1-8 21l-311 232a21 21 0 1 1-25-34l266-198h-527a21 21 0 0 1 0-42h527l-266-198a21 21 0 1 1 25-34l311 232a21 21 0 0 1 8 19 21 21 0 0 1 0 2z" horiz-adv-x="1000" />

<glyph glyph-name="ol-autograph" unicode="&#xe87a;" d="M944-87a25 25 0 0 1 0 15l-67 188a25 25 0 0 1-5 8l-77 86a25 25 0 0 1-15 8 25 25 0 0 1-6 15l-329 365a25 25 0 0 1-11 7 25 25 0 0 1-5 23l-138 153a71 71 0 0 1-53 24 73 73 0 0 1-50-19l-56-50a71 71 0 0 1-24-50 72 72 0 0 1 0-14 41 41 0 0 1-14 2 46 46 0 0 1-25-7q-1-1-1-2c-15-11-18-32-8-52a25 25 0 0 1 3-6l211-231a38 38 0 0 1 57-3 39 39 0 0 1 13 27 39 39 0 0 1 0 9l280-310a25 25 0 0 1 14-8 25 25 0 0 1 6-16l78-85a25 25 0 0 1 8-6l138-67h-759c-15 0-15-22 0-22h826c11 0 14 11 9 18z m-796 804l56 50a49 49 0 0 0 34 14 47 47 0 0 0 35-16l137-154-127-116-138 154c-18 20-17 51 3 68z m166-326a14 14 0 0 0-10-4 15 15 0 0 0-11 6l-211 231c-4 7-5 17 1 22a21 21 0 0 0 11 4 14 14 0 0 0 11-5l210-232a14 14 0 0 0-1-22z m-1 89l114 101 328-365-112-101z m350-389l113 103 78-86 67-188-181 86z" horiz-adv-x="1000" />

<glyph glyph-name="ol-check" unicode="&#xe87b;" d="M500 773a423 423 0 0 0 165-813 423 423 0 0 0-330 780 420 420 0 0 0 165 33m0 34c-252 0-457-204-457-457 0-252 205-457 457-457 253 0 457 205 457 457 0 253-204 457-457 457z m-42-719a21 21 0 0 0-14 5l-213 187a21 21 0 0 0 28 32l194-171 284 448a21 21 0 1 0 36-22l-297-470a21 21 0 0 0-18-9z" horiz-adv-x="1000" />

<glyph glyph-name="ol-credit-card" unicode="&#xe87d;" d="M248 701a55 55 0 0 1-55-55v-90h-91a55 55 0 0 1-54-55v-447a55 55 0 0 1 54-55l650 0a55 55 0 0 1 55 55v91h91a55 55 0 0 1 55 55l0 446a55 55 0 0 1-55 55z m0-32h650a22 22 0 0 0 22-23v-447a22 22 0 0 0-22-22l-91 0v324a55 55 0 0 1-16 39 57 57 0 0 1-8 6 55 55 0 0 1-31 10h-527v90a22 22 0 0 0 23 23z m-146-146h650a22 22 0 0 0 23-22l0-80h-695v80a22 22 0 0 0 22 22z m-22-135h695v-61h-695z m0-94h695v-240a22 22 0 0 0-23-23h-650a22 22 0 0 0-22 23z m78-83a16 16 0 0 1 1-32h170a16 16 0 0 1 11 27 16 16 0 0 1-11 5h-170a12 12 0 0 1-1 0z m1-73l0 0a16 16 0 1 1 0-32h73a16 16 0 0 1 0 32z" horiz-adv-x="1000" />

<glyph glyph-name="ol-check-payment" unicode="&#xe87e;" d="M844 410h-60a15 15 0 1 1 0-30h30v-15a15 15 0 0 1 30 0v15a45 45 0 1 1 0 90h-30a15 15 0 0 0 0 29h60a15 15 0 1 1 0 30h-30v15a15 15 0 1 1-30 0v-15a45 45 0 1 1 0-89h30a15 15 0 1 0 0-30z m89 209h-209v30c0 0 0 0 0 0a16 16 0 0 1-1 5l-30 89a15 15 0 0 1-14 10v15a15 15 0 0 1-30 0v-15a15 15 0 0 1-14-10l-30-89a13 13 0 0 1 0-5 1 1 0 0 1 0 0v-30h-538a15 15 0 0 1-15-15v-508a15 15 0 0 1 15-15h538v-119a45 45 0 0 1 44-45h30a45 45 0 0 1 45 45v59h45a15 15 0 0 1 15 15v45h149a15 15 0 0 1 15 15v508a15 15 0 0 1-15 15z m-299-15v30h60v-493h-60z m26 120h9l19-60h-48z m-578-613v478h523v-478z m612-149a15 15 0 0 0-15-15h-30a15 15 0 0 0-15 15v149h60z m60 89h-30v30h30z m164 60h-134v105a15 15 0 0 1-30 0v-105h-30v478h194z m-567 164h-209a15 15 0 0 1-15-15v-89a15 15 0 0 1 15-15h209a15 15 0 0 1 15 15v89a15 15 0 0 1-15 15z m-15-89h-180v59h180z m59 74h180v-29h-180z m0-59h120v-30h-120z m-283 224h463v-30h-463z m15 119h328v-30h-328z m0-60h328v-29h-328z" horiz-adv-x="1000" />

<glyph glyph-name="ol-reholder" unicode="&#xe87f;" d="M968 745v-793a80 80 0 0 0-80-80h-421a80 80 0 0 0-80 80v16q15 1 30 3v-19a50 50 0 0 1 50-50h421a50 50 0 0 1 50 50v793a50 50 0 0 1-50 50h-421a50 50 0 0 1-50-50v-70q-15 2-30 3v67a80 80 0 0 0 80 80h421a80 80 0 0 0 80-80z m-313-224q10-14 19-30h187v-512h-369v13q-14-6-30-10v-33h429v572z m-193 231v-88q15-4 30-10v68h370v-124h-276q13-11 25-23 4-4 7-7h274v184z m128-660a326 326 0 0 1-461 462h0a326 326 0 0 1 461-462z m-231 527a296 296 0 1 0-209-87h0a294 294 0 0 0 209 87z m171-417h-28a193 193 0 1 1-143-63c1 0 1 0 1 0a23 23 0 1 1 0 46 147 147 0 0 0-147 147v0a147 147 0 1 0 255-100v32a23 23 0 1 1-46 0v-85a23 23 0 0 1 23-23h85a23 23 0 1 1 0 46z" horiz-adv-x="1000" />

<glyph glyph-name="ol-crossover" unicode="&#xe880;" d="M891 521v-572h-429v33q16 4 30 10v-13h369v512h-187q-9 16-19 30z m-3 304h-421a80 80 0 0 1-80-80v-67q15-1 30-3v70a50 50 0 0 0 50 50h421a50 50 0 0 0 50-50v-793a50 50 0 0 0-50-50h-421a50 50 0 0 0-50 50v19q-15-2-30-3v-16a80 80 0 0 1 80-80h421a80 80 0 0 1 80 80v793a80 80 0 0 1-80 80z m-426-73v-88q15-4 30-10v68h370v-124h-276q13-11 25-23 4-4 7-7h274v184z m128-660a326 326 0 0 1-461 462h0a326 326 0 0 1 461-462z m-231 527a296 296 0 1 0-209-87h0a294 294 0 0 0 209 87z m-213-302a15 15 0 0 1 15-16l332 0-132-136a16 16 0 0 1 0-22l10-11a15 15 0 0 1 21 1l171 175 5 5a15 15 0 0 1 0 22l-174 175a15 15 0 0 1-21 0l-11-11a15 15 0 0 1 0-22l130-130-331 0a15 15 0 0 1-15-15z" horiz-adv-x="1000" />

<glyph glyph-name="ol-grading" unicode="&#xe881;" d="M968 745v-793a80 80 0 0 0-80-80h-421a80 80 0 0 0-80 80v16q15 1 30 3v-19a50 50 0 0 1 50-50h421a50 50 0 0 1 50 50v793a50 50 0 0 1-50 50h-421a50 50 0 0 1-50-50v-70q-15 2-30 3v67a80 80 0 0 0 80 80h421a80 80 0 0 0 80-80z m-378-653a326 326 0 0 1-461 462h0a326 326 0 0 1 461-462z m-231 527a296 296 0 1 0-209-87h0a294 294 0 0 0 209 87z m296-98q10-14 19-30h187v-512h-369v13q-14-6-30-10v-33h429v572z m-193 231v-88q15-4 30-10v68h370v-124h-276q13-11 25-23 4-4 7-7h274v184z m133-453v-2c0-50-41-92-91-91a90 90 0 0 0-87 89v5l65 165h-95a33 33 0 0 0-14-15v-287h95c0 0 1 0 1 0l0 0a15 15 0 0 0 0-31v0l-223 0a15 15 0 0 0 0 31l0 0c0 0 0 0 0 0h96v287a33 33 0 0 0-15 15h-95l67-165v-3c0-50-41-92-91-91a90 90 0 0 0-87 89v5l65 165 6 14a27 27 0 0 0 25 17h110a33 33 0 0 0 21 16l0 1a47 47 0 0 0 9 1 40 40 0 0 0 10-2 33 33 0 0 0 20-16h112a25 25 0 0 0 23-16l6-15 67-165v-1z m-146-19a58 58 0 0 1 56-43 60 60 0 0 1 57 43z m107 31l-51 128-51-128z m-403-31a58 58 0 0 1 56-43 60 60 0 0 1 57 43z m107 31l-51 128-51-128z m335-14c0 0 0 0 0 0h-8z" horiz-adv-x="1000" />

<glyph glyph-name="ol-trading-card" unicode="&#xe882;" d="M808 790v-880h-616v880h616m0 30h-616a30 30 0 0 1-30-30v-880a30 30 0 0 1 30-30h616a30 30 0 0 1 30 30v880a30 30 0 0 1-30 30z m-71-101v-357h-474v357h474m0 30h-474a30 30 0 0 1-30-30v-357a30 30 0 0 1 30-30h474a30 30 0 0 1 30 30v357a30 30 0 0 1-30 30z m-43-569l-71 97a11 11 0 0 1-8 5l-229 0a10 10 0 0 1-6-2v2l-74-102a11 11 0 0 1 1-13l185-203a11 11 0 0 1 16 0l185 203a11 11 0 0 1 1 13z m-30 5h-71l24 64z m-4-22l-132-145 56 145z m-137 97h76l-25-63z m38-97l-61-157-61 157z m-117 22l56 69 56-69z m-43 75h76l-51-63z m15-97l56-145-132 145z m-9 22h-71l47 63z" horiz-adv-x="1000" />

<glyph glyph-name="ol-comic" unicode="&#xe883;" d="M613 31a16 16 0 0 0-16-16h-413a16 16 0 0 0-16 16 16 16 0 0 0 16 16h413a16 16 0 0 0 16-16z m98 207q-1 1-1 1 0 0 1-1z m5-6c0 0 0 0 0 0l0 0 0 0c0 0 0 0 0 0z m0 1l0 0z m-18 17v0c1-1 2-1 2-2q-1 1-2 2z m5-5c1 0 2-1 2-2 0 1-1 2-2 2z m13-12c0 0-1 1-1 1 0 0 1-1 1-1z m-16 15q2-1 3-2-1 1-3 2z m5-5c2-1 3-2 4-3-1 1-2 2-4 3z m23-13c0 0 0 0-1 0 1 0 1 0 1 0z m-15 6c1-1 1-2 2-2-1 0-1 1-2 2z m6-5c0 0-1 0-1 0 0 0 1 0 1 0z m1 0c1 0 1 0 1-1 0 1 0 1-1 1z m5-31a46 46 0 0 0-25 7q0 1-1 1c0 0 0 0-1 1v-299h-615v880h615v-90a290 290 0 0 1 30 29v61a30 30 0 0 1-30 30h-615a30 30 0 0 1-30-30v-880a30 30 0 0 1 30-30h615a30 30 0 0 1 30 30v290c-1 0-2 0-3 0z m0 483c-3-2-5-3-7-5 2 2 4 3 7 5z m-14-445c1-1 1-1 2-2-1 1-1 1-2 2z m15-8c0 0-1 0-1 0 0 0 0 0 0 0 1 0 1 0 1 0z m-2 0c-1 0-1 0-1 0 0 0 0 0 1 0z m-145 461h0m183-14c-38-38-74-58-106-60-2 0-3 0-4 0-25 0-49 10-69 31a142 142 0 0 0-12 14c-10-24-27-50-56-59a80 80 0 0 0-25-4c-31 0-68 16-110 46a83 83 0 0 0 1-17c-4-48-48-76-80-89 20-18 41-43 38-73-2-28-23-50-67-67 26-9 43-23 52-41 10-20 6-41-1-59 20 11 38 17 53 17a60 60 0 0 0 9 0 123 123 0 0 0 63-31c21-20 33-44 38-68q1 3 3 7c17 38 34 78 80 90a141 141 0 0 0 35 4c48 0 87-24 112-44 3 30 16 78 63 106 18 11 39 18 64 21q-5 3-10 7c-34 27-40 55-38 75 2 31 24 63 63 94q2 2 3 3c-28 4-57 14-77 35-15 17-23 38-22 62m161-99h0m-121 181a19 19 0 0 0 4 0c7-2 11-8 7-14-13-25-20-46-21-64-5-65 68-74 106-74 12 0 20 1 22 1a22 22 0 0 0 2 0c6 0 11-2 13-7 1-5-2-10-9-14-1 0-97-53-101-106-3-36 36-66 114-89 6-1 8-5 8-9l0-1a11 11 0 0 0-2-4c-3-6-10-9-17-9a20 20 0 0 0-3 0 339 339 0 0 1-50 4c-33 0-60-6-81-19-39-24-48-66-49-90a119 119 0 0 1 0-19c0-4-4-10-10-13a23 23 0 0 0-10-2 16 16 0 0 0-9 2c0 1-48 56-112 56a111 111 0 0 1-28-3c-46-12-52-72-86-126-3-6-10-9-18-9 0 0 0 0 0 0-8 0-13 4-12 10 8 108-66 124-79 126a30 30 0 0 1-5 0c-28 0-73-37-87-51a23 23 0 0 0-16-6 20 20 0 0 0-3 0c-6 1-11 5-10 11 0 0 1 4 2 12 2 23 121 118-72 132-9 1-16 4-16 10 0 6 7 12 16 14 53 10 117 29 119 61 2 27-38 58-54 67a9 9 0 0 0-4 11c2 5 7 9 13 10 1 0 83 22 87 73 1 18-7 38-24 59-4 5-2 12 6 17a23 23 0 0 0 11 3 15 15 0 0 0 11-4c68-62 111-76 135-76a50 50 0 0 1 16 2c29 10 41 51 44 65 0 6 7 11 14 13a23 23 0 0 0 5 0c6 0 11-2 12-6 7-16 32-56 71-56 0 0 1 0 2 0 25 1 68 20 130 104a22 22 0 0 0 18 8z" horiz-adv-x="1000" />

<glyph glyph-name="ol-magazine" unicode="&#xe884;" d="M207 741l-6-1a17 17 0 0 1-14-16v-827a17 17 0 0 1 5-12 17 17 0 0 1 11-5h594a17 17 0 0 1 16 17v827a17 17 0 0 1-4 12 17 17 0 0 1-12 5l0 0h-63v62a17 17 0 0 1-19 16z m13-32l3 1 478 73v-792l-3-1-478-73z m500-749a17 17 0 0 1 14 16v731h46l0-793h-338l0 6z m-123 701a17 17 0 0 0 12-3 17 17 0 0 0-8-30l-277-40a17 17 0 0 0-19 15 17 17 0 0 0 15 19z" horiz-adv-x="1000" />

<glyph glyph-name="ol-poster" unicode="&#xe885;" d="M808 704h-66v15a30 30 0 0 1-30 30h-15v65a17 17 0 0 1-5 12 15 15 0 0 1-12 4 16 16 0 0 1-15-16v-65h-15a30 30 0 0 1-30-30v-15h-239v15a30 30 0 0 1-30 30h-16v65a17 17 0 0 1-5 12 15 15 0 0 1-11 4 16 16 0 0 1-15-16v-65h-16a30 30 0 0 1-30-30v-15h-66a30 30 0 0 1-30-30v-774a30 30 0 0 1 30-30h616a30 30 0 0 1 30 30v774a30 30 0 0 1-30 30z m-158 15h62v-64h-62z m-362 0h63v-64h-63z m520-819h-616v774h66v-19a30 30 0 0 1 30-30h63a30 30 0 0 1 30 30v19h239v-19a30 30 0 0 1 30-30h62a30 30 0 0 1 30 30v19h66z m-137 277a19 19 0 0 0 0 3v265a9 9 0 0 1-1 3 14 14 0 0 1-4 8 14 14 0 0 1-10 3 17 17 0 0 1-4 0 11 11 0 0 1-3-1l-235-62a15 15 0 0 1-6-3 13 13 0 0 1-4-6 11 11 0 0 1-1-3 15 15 0 0 1-1-4v-222a81 81 0 0 1-17 8 85 85 0 0 1-25 3c-19 0-36-5-50-17-14-11-22-25-22-41s8-31 22-42c14-11 31-17 50-17 20 0 37 6 51 17 14 11 21 25 21 42a16 16 0 0 1 0 2l-1 2v256l211 54v-204a81 81 0 0 1-18 8 85 85 0 0 1-24 3c-20 0-37-5-51-17-14-11-21-25-21-41 0-17 7-31 21-42 14-11 31-17 51-17s36 6 50 17c14 11 21 25 21 42a23 23 0 0 1 0 3z m-102 16c8 7 18 10 31 10 12 0 22-3 30-10 8-6 12-13 12-19s-4-14-12-20c-8-6-18-10-30-10-13 0-23 4-31 10-8 6-11 13-11 20s3 13 11 19z m-166-80a7 7 0 0 0 0-1 3 3 0 0 1 0-2c0-6-4-13-12-19-7-6-18-10-30-10s-23 4-31 10c-8 6-12 13-12 20s4 13 12 19c8 7 18 10 31 10a48 48 0 0 0 28-8c7-5 12-10 13-16v-1a11 11 0 0 1 1-2z" horiz-adv-x="1000" />

</font>
</defs>
</svg>
